<?xml version="1.0" standalone="no"?>
<!DOCTYPE svg PUBLIC "-//W3C//DTD SVG 1.1//EN" "http://www.w3.org/Graphics/SVG/1.1/DTD/svg11.dtd" >
<svg xmlns="http://www.w3.org/2000/svg" xmlns:xlink="http://www.w3.org/1999/xlink" version="1.1">
<metadata>
Created by FontForge 20170731 at Mon May 22 08:20:44 2023
 By Aleksey,,,
Copyright 2017-2019 The Inter project authors
</metadata>
<defs>
<font id="Inter-SemiBold" horiz-adv-x="0" >
  <font-face 
    font-family="Inter Semi Bold"
    font-weight="600"
    font-stretch="normal"
    units-per-em="2048"
    panose-1="2 11 7 2 3 0 0 0 0 4"
    ascent="1638"
    descent="-410"
    x-height="1117"
    cap-height="1489"
    bbox="-1587 -820 3382 2234"
    underline-thickness="176"
    underline-position="-500"
    unicode-range="U+0020-1F16B"
  />
<missing-glyph horiz-adv-x="2112" 
d="M201 -465v372h1710v-372h-1710zM201 47v372h1710v-372h-1710zM201 559v372h1710v-372h-1710zM201 1071v372h1710v-372h-1710zM201 1583v372h1710v-372h-1710z" />
    <glyph glyph-name=".notdef" horiz-adv-x="2112" 
d="M201 -465v372h1710v-372h-1710zM201 47v372h1710v-372h-1710zM201 559v372h1710v-372h-1710zM201 1071v372h1710v-372h-1710zM201 1583v372h1710v-372h-1710z" />
    <glyph glyph-name=".null" 
 />
    <glyph glyph-name="nonmarkingreturn" horiz-adv-x="682" 
 />
    <glyph glyph-name="uni0020" unicode=" " horiz-adv-x="508" 
 />
    <glyph glyph-name="uni0021" unicode="!" horiz-adv-x="632" 
d="M457 1489l-24 -1051h-234l-23 1051h281zM316 -16q-67 0 -114 46.5t-46 113.5q-1 65 46 112t114 47q65 0 112 -47t48 -112q-1 -66 -48 -113t-112 -47z" />
    <glyph glyph-name="uni0022" unicode="&#x22;" horiz-adv-x="810" 
d="M317 1489v-548h-201v548h201zM692 1489v-548h-201v548h201z" />
    <glyph glyph-name="uni0023" unicode="#" horiz-adv-x="1317" 
d="M697 0l63 384h-320l-63 -384h-204l63 384h-211l35 204h210l51 314h-209l33 203h209l63 384h204l-63 -384h320l63 384h204l-64 -384h211l-34 -203h-210l-51 -314h209l-34 -204h-208l-64 -384h-203zM473 588h320l51 314h-320z" />
    <glyph glyph-name="uni0024" unicode="$" horiz-adv-x="1329" 
d="M590 -186l1 166q-228 19 -359.5 138t-138.5 322h266q7 -96 69 -153t164 -73l3 440l-66 17q-397 102 -397 400q-1 178 130 296t339 139v170h155l-1 -170q206 -19 332 -136t129 -290h-260q-9 78 -62.5 129t-140.5 66l-2 -415l48 -13q90 -21 163.5 -54t137.5 -83t100 -124.5
t36 -167.5q-1 -185 -130.5 -303t-360.5 -135l-1 -166h-154zM746 214q101 17 160.5 71.5t60.5 134.5q-1 73 -55.5 117t-162.5 76zM596 899l3 376q-90 -16 -141 -66.5t-52 -121.5t51 -115.5t139 -72.5z" />
    <glyph glyph-name="uni0025" unicode="%" horiz-adv-x="1728" 
d="M929 279v79q1 136 85.5 228.5t229.5 92.5q149 0 232.5 -91.5t82.5 -229.5v-79q1 -136 -83.5 -228t-231.5 -92t-230.5 92t-84.5 228zM172 1132v78q1 137 85 229t230 92q149 0 232 -91.5t82 -229.5v-78q1 -137 -83 -228.5t-231 -91.5q-148 0 -231 91.5t-84 228.5zM237 0
l1024 1489h183l-1024 -1489h-183zM1119 358v-79q1 -65 31 -109t94 -44q65 0 94.5 44t28.5 109v79q1 66 -28 110.5t-95 44.5q-64 0 -94 -44.5t-31 -110.5zM363 1210v-78q1 -66 30.5 -110t93.5 -44q65 0 94.5 44.5t28.5 109.5v78q1 66 -28 110.5t-95 44.5q-64 0 -93.5 -45
t-30.5 -110z" />
    <glyph glyph-name="uni0026" unicode="&#x26;" horiz-adv-x="1357" 
d="M580 -22q-224 0 -357.5 118t-133.5 300q0 64 19.5 119t59.5 103t86.5 87.5t114.5 86.5q-73 91 -113 173.5t-40 174.5q0 161 108 264.5t283 103.5q171 0 274.5 -98.5t103.5 -240.5q0 -195 -198 -339l-94 -69l272 -319q63 118 63 260h226q0 -274 -130 -447l219 -255h-286
l-95 109q-75 -65 -176.5 -98t-205.5 -33zM819 273l-309 354l-24 -18q-70 -51 -104 -105t-34 -97q0 -90 66.5 -151t173.5 -61q122 0 231 78zM559 921l84 58q60 39 89 81t29 98q0 52 -42 93t-109 41q-69 0 -114 -46.5t-45 -109.5q0 -83 108 -215z" />
    <glyph glyph-name="uni0027" unicode="'" horiz-adv-x="436" 
d="M317 1489v-548h-201v548h201z" />
    <glyph glyph-name="uni0028" unicode="(" horiz-adv-x="805" 
d="M201 607q0 534 288 925h248q-112 -145 -187 -407t-75 -518t75 -516.5t187 -406.5h-248q-288 391 -288 923z" />
    <glyph glyph-name="uni0029" unicode=")" horiz-adv-x="805" 
d="M605 607q0 -533 -288 -924h-248q112 146 187 407t75 517t-75 517t-187 407h248q288 -391 288 -924z" />
    <glyph glyph-name="uni002A" unicode="*" horiz-adv-x="1112" 
d="M468 652l16 294l-247 -162l-89 154l264 133l-264 132l89 154l247 -162l-16 294h176l-16 -294l248 162l88 -154l-264 -132l264 -133l-88 -154l-248 162l16 -294h-176z" />
    <glyph glyph-name="uni002B" unicode="+" horiz-adv-x="1357" 
d="M564 98v381h-380v228h380v380h229v-380h380v-228h-380v-381h-229z" />
    <glyph glyph-name="uni002C" unicode="," horiz-adv-x="604" 
d="M444 204l-9 -80q-20 -183 -136 -488h-178q1 4 10.5 43t14 59t14 63t15.5 76t13 76.5t12 85.5t7 83l5 82h232z" />
    <glyph glyph-name="uni002D" unicode="-" horiz-adv-x="954" 
d="M812 729v-217h-670v217h670z" />
    <glyph glyph-name="uni002E" unicode="." horiz-adv-x="594" 
d="M297 -16q-67 0 -114 46.5t-46 113.5q-1 65 46 112t114 47q65 0 112 -47t48 -112q-1 -66 -48 -113t-112 -47z" />
    <glyph glyph-name="uni002F" unicode="/" horiz-adv-x="775" 
d="M743 1559l-480 -1783h-230l480 1783h230z" />
    <glyph glyph-name="uni0030" unicode="0" horiz-adv-x="1365" 
d="M683 -28q-270 0 -422 203t-152 568q1 364 153 565.5t421 201.5q270 0 422 -202t152 -565q0 -366 -152 -569t-422 -202zM683 199q142 0 222 140t80 404q-1 262 -81 402t-221 140t-220.5 -139.5t-80.5 -402.5q-1 -264 79.5 -404t221.5 -140z" />
    <glyph glyph-name="uni0031" unicode="1" horiz-adv-x="949" 
d="M703 1489v-1489h-271v1145h-12q-26 -41 -110 -76t-198 -35v218q72 0 136.5 27.5t105 67t64.5 78t26 64.5h259z" />
    <glyph glyph-name="uni0032" unicode="2" horiz-adv-x="1272" 
d="M132 0v195l517 507q123 125 173 200t50 162q0 103 -69.5 165t-177.5 62q-111 0 -178 -66.5t-67 -180.5h-256q0 210 140.5 338t363.5 128t363 -122t140 -310q0 -128 -78 -251.5t-292 -329.5l-256 -261v-11h648v-225h-1021z" />
    <glyph glyph-name="uni0033" unicode="3" horiz-adv-x="1334" 
d="M667 -20q-155 0 -278.5 53.5t-194 150.5t-73.5 221h273q5 -90 81.5 -144.5t190.5 -54.5q120 0 197 62t76 160q1 103 -80 166t-220 63h-131v208h131q116 0 189 59.5t72 156.5q1 94 -62.5 152t-167.5 58q-106 0 -180.5 -56t-77.5 -147h-260q3 122 72 219t186.5 150
t260.5 53q218 0 354.5 -119.5t135.5 -293.5q1 -123 -72.5 -209t-196.5 -113v-11q155 -22 240.5 -115.5t84.5 -234.5q0 -124 -70.5 -223.5t-196 -155t-283.5 -55.5z" />
    <glyph glyph-name="uni0034" unicode="4" horiz-adv-x="1363" 
d="M105 276v215l632 998h336v-991h191v-222h-191v-276h-257v276h-711zM819 498v686h-12l-425 -674v-12h437z" />
    <glyph glyph-name="uni0035" unicode="5" horiz-adv-x="1295" 
d="M650 -20q-218 0 -363.5 120t-150.5 305h262q7 -91 78.5 -149t173.5 -58q120 0 197.5 80t76.5 205q1 126 -78.5 207.5t-202.5 82.5q-66 1 -131 -25t-103 -67l-244 40l78 768h864v-225h-641l-43 -395h9q43 50 119 82t164 32q204 0 337 -139.5t133 -354.5
q0 -223 -149.5 -366t-385.5 -143z" />
    <glyph glyph-name="uni0036" unicode="6" horiz-adv-x="1327" 
d="M678 -20q-90 0 -169.5 22.5t-154 76t-128 134t-85.5 206t-32 284.5q0 382 156.5 596.5t427.5 214.5q207 0 345.5 -119.5t162.5 -306.5h-266q-21 90 -84 141.5t-158 51.5q-154 0 -237.5 -134t-84.5 -375h10q53 96 152.5 151t219.5 55q197 0 330 -138t132 -347
q1 -224 -149 -369t-388 -144zM676 198q118 0 198 83.5t79 205.5q1 121 -77 203t-196 82q-117 0 -198 -84.5t-82 -202.5q1 -119 79.5 -203t196.5 -84z" />
    <glyph glyph-name="uni0037" unicode="7" horiz-adv-x="1202" 
d="M187 0l633 1254v10h-735v225h1015v-230l-633 -1259h-280z" />
    <glyph glyph-name="uni0038" unicode="8" horiz-adv-x="1322" 
d="M662 -20q-243 0 -399 118.5t-155 300.5q-1 138 88.5 243.5t222.5 127.5v10q-114 25 -185.5 117.5t-70.5 213.5q0 114 64 205t178 142.5t257 51.5q215 0 356 -113.5t142 -285.5q-1 -121 -72 -213.5t-184 -117.5v-10q131 -22 220.5 -127.5t90.5 -243.5
q-1 -182 -156.5 -300.5t-396.5 -118.5zM662 188q125 0 200 63.5t76 166.5q-1 106 -79 175t-197 69q-121 0 -199.5 -68.5t-77.5 -175.5q-1 -103 75 -166.5t202 -63.5zM662 866q102 0 168 61t67 158q-1 96 -66 155t-169 59q-106 0 -171.5 -59t-64.5 -155q-1 -96 65.5 -157.5
t170.5 -61.5z" />
    <glyph glyph-name="uni0039" unicode="9" horiz-adv-x="1327" 
d="M649 1514q90 -1 169.5 -23t154 -75.5t127.5 -134t85.5 -206t32.5 -284.5q-1 -382 -157.5 -596.5t-426.5 -214.5q-208 0 -345.5 119t-161.5 307h265q21 -90 83.5 -141.5t158.5 -51.5q154 0 237.5 133.5t84.5 374.5h-10q-54 -96 -152.5 -150.5t-219.5 -54.5
q-197 0 -329.5 137.5t-132.5 347.5q0 223 149 368.5t388 144.5zM650 1296q-118 0 -197 -83.5t-79 -205.5t77.5 -204t195.5 -82q117 0 198.5 85t81.5 202q0 119 -79.5 203.5t-197.5 84.5z" />
    <glyph glyph-name="uni003A" unicode=":" horiz-adv-x="594" 
d="M297 -16q-67 0 -114 46.5t-46 113.5q-1 65 46 112t114 47q65 0 112 -47t48 -112q-1 -66 -48 -113t-112 -47zM297 782q-67 0 -114 46.5t-46 113.5q-1 65 46 111.5t114 46.5q65 0 112 -46.5t48 -111.5q-1 -66 -48 -113t-112 -47z" />
    <glyph glyph-name="uni003B" unicode=";" horiz-adv-x="602" 
d="M444 204l-9 -80q-20 -183 -136 -488h-178q1 4 10.5 43t14 59t14 63t15.5 76t13 76.5t12 85.5t7 83l5 82h232zM324 782q-67 0 -114 46.5t-46 113.5q-1 65 46 111.5t114 46.5q65 0 112 -46.5t48 -111.5q-1 -66 -48 -113t-112 -47z" />
    <glyph glyph-name="uni003C" unicode="&#x3c;" horiz-adv-x="1357" 
d="M181 487v209l995 460v-259l-699 -299v-13l699 -300v-258z" />
    <glyph glyph-name="uni003D" unicode="=" horiz-adv-x="1357" 
d="M212 246v225h933v-225h-933zM212 711v225h933v-225h-933z" />
    <glyph glyph-name="uni003E" unicode="&#x3e;" horiz-adv-x="1357" 
d="M1176 487l-995 -460v258l699 300v13l-699 299v259l995 -460v-209z" />
    <glyph glyph-name="uni003F" unicode="?" horiz-adv-x="1114" 
d="M387 438v19q0 126 26 208.5t66 125.5t112 88q156 97 156 227q0 84 -58 136.5t-143 52.5q-83 0 -143 -53t-65 -150h-259q5 199 137 308.5t332 109.5q210 0 339.5 -108.5t129.5 -291.5q0 -226 -218 -356q-62 -38 -97.5 -76t-54 -91.5t-18.5 -129.5v-19h-242zM514 -16
q-67 0 -114 46.5t-46 113.5q-1 65 46 112t114 47q65 0 112 -47t48 -112q-1 -66 -48 -113t-112 -47z" />
    <glyph glyph-name="uni0040" unicode="@" horiz-adv-x="2046" 
d="M1071 1467q208 0 377 -65t280 -179.5t170.5 -268.5t59.5 -334q2 -609 -402 -624q-110 -6 -178.5 36.5t-81.5 124.5h-9q-27 -68 -117.5 -113t-209.5 -39q-183 8 -297.5 146.5t-114.5 373.5q0 113 33.5 206t90 154t126.5 98t148 47q113 16 208 -17t113 -84h10v81h203v-692
q1 -55 27 -88.5t72 -33.5q86 0 124.5 104.5t37.5 331.5q0 152 -50.5 273t-141.5 199t-214.5 119.5t-269.5 41.5q-175 0 -313 -54.5t-227.5 -154t-136 -235.5t-46.5 -302q0 -354 191 -542.5t551 -188.5q110 0 220.5 23.5t181.5 50.5l62 -185q-73 -38 -208 -66t-269 -28
q-457 0 -706 244t-250 689q0 289 112.5 503t329 331t514.5 117zM1022 821q-119 0 -187 -79.5t-69 -207.5q0 -66 13.5 -121t42 -101t79 -72t119.5 -26q135 0 194 79t57 242q-1 151 -58 218.5t-191 67.5z" />
    <glyph glyph-name="uni0041" unicode="A" horiz-adv-x="1482" 
d="M338 0h-288l525 1489h333l525 -1489h-288l-124 367h-560zM534 584h414l-201 600h-12z" />
    <glyph glyph-name="uni0042" unicode="B" horiz-adv-x="1346" 
d="M147 0v1489h570q234 0 358.5 -106.5t124.5 -279.5q0 -129 -72 -209.5t-188 -107.5v-14q128 -6 223 -106t95 -260q0 -182 -130.5 -294t-377.5 -112h-603zM417 225h290q141 0 209 54t68 148q0 102 -73.5 168.5t-196.5 66.5h-297v-437zM417 856h267q107 0 176.5 58t69.5 154
q0 89 -62.5 144t-178.5 55h-272v-411z" />
    <glyph glyph-name="uni0043" unicode="C" horiz-adv-x="1522" 
d="M1422 987h-272q-23 131 -119.5 206t-234.5 75q-187 0 -301.5 -138t-114.5 -385q0 -250 114.5 -386.5t300.5 -136.5q136 0 233 72t122 201l272 -2q-15 -107 -66.5 -200t-131 -163t-191.5 -110t-242 -40q-197 0 -350.5 90t-242.5 265t-89 410q0 177 52 322t143 241.5
t216 149t271 52.5q252 0 424.5 -139.5t206.5 -383.5z" />
    <glyph glyph-name="uni0044" unicode="D" horiz-adv-x="1483" 
d="M652 0h-505v1489h515q333 0 523 -197.5t190 -545.5q0 -349 -191.5 -547.5t-531.5 -198.5zM417 233h222q468 0 468 513q0 510 -460 510h-230v-1023z" />
    <glyph glyph-name="uni0045" unicode="E" horiz-adv-x="1244" 
d="M147 0v1489h969v-226h-699v-404h648v-226h-648v-407h704v-226h-974z" />
    <glyph glyph-name="uni0046" unicode="F" horiz-adv-x="1199" 
d="M147 0v1489h954v-226h-684v-404h619v-226h-619v-633h-270z" />
    <glyph glyph-name="uni0047" unicode="G" horiz-adv-x="1546" 
d="M1145 1014q-37 120 -127 187t-223 67q-185 0 -300 -138t-115 -384q0 -248 115 -386t306 -138q168 0 267.5 94t102.5 253h-343v211h604v-179q0 -189 -81.5 -330.5t-224.5 -216t-327 -74.5q-311 0 -500.5 206.5t-189.5 556.5q0 176 52 321.5t143 242.5t216 150t271 53
q246 0 420 -138t209 -358h-275z" />
    <glyph glyph-name="uni0048" unicode="H" horiz-adv-x="1523" 
d="M147 0v1489h270v-630h690v630h270v-1489h-270v633h-690v-633h-270z" />
    <glyph glyph-name="uni0049" unicode="I" horiz-adv-x="562" 
d="M417 1489v-1489h-270v1489h270z" />
    <glyph glyph-name="uni004A" unicode="J" horiz-adv-x="1148" 
d="M735 1489h267v-1047q-1 -214 -132.5 -338t-348.5 -124q-204 0 -332.5 108.5t-128.5 307.5h268q1 -90 57 -142.5t147 -52.5q97 0 149.5 62t53.5 179v1047z" />
    <glyph glyph-name="uni004B" unicode="K" horiz-adv-x="1386" 
d="M147 0v1489h270v-684h18l581 684h329l-576 -668l582 -821h-325l-444 639l-165 -195v-444h-270z" />
    <glyph glyph-name="uni004C" unicode="L" horiz-adv-x="1159" 
d="M147 0v1489h270v-1263h656v-226h-926z" />
    <glyph glyph-name="uni004D" unicode="M" horiz-adv-x="1883" 
d="M147 1489h330l442 -1079h18l442 1079h330v-1489h-259v1023h-14l-411 -1019h-194l-411 1021h-14v-1025h-259v1489z" />
    <glyph glyph-name="uni004E" unicode="N" horiz-adv-x="1517" 
d="M1371 1489v-1489h-240l-702 1015h-12v-1015h-270v1489h241l701 -1015h14v1015h268z" />
    <glyph glyph-name="uni004F" unicode="O" horiz-adv-x="1586" 
d="M1478 745q0 -177 -52 -322t-144 -241.5t-217 -149t-272 -52.5t-272 52.5t-216.5 149t-143.5 241.5t-52 322t52 322t143.5 241.5t216.5 149t272 52.5t272 -52.5t217 -149t144 -241.5t52 -322zM1207 745q0 249 -113.5 386t-300.5 137q-186 0 -299.5 -137.5t-113.5 -385.5
t113.5 -385.5t299.5 -137.5q187 0 300.5 137t113.5 386z" />
    <glyph glyph-name="uni0050" unicode="P" horiz-adv-x="1317" 
d="M147 0v1489h558q250 0 388 -136.5t138 -356.5q0 -221 -138.5 -357t-390.5 -136h-285v-503h-270zM417 725h248q145 0 218 73t73 198q0 124 -73 196t-219 72h-247v-539z" />
    <glyph glyph-name="uni0051" unicode="Q" horiz-adv-x="1588" 
d="M1478 745q0 -198 -63.5 -352.5t-178.5 -255.5l206 -265h-262l-123 156q-121 -48 -264 -48q-147 0 -272 52.5t-216.5 149t-143.5 241.5t-52 322t52 322t143.5 241.5t216.5 149t272 52.5t272 -52.5t217 -149t144 -241.5t52 -322zM702 500h244l127 -164q134 140 134 409
q0 249 -113.5 386t-300.5 137q-186 0 -299.5 -137.5t-113.5 -385.5t113.5 -385.5t299.5 -137.5q56 0 110 14z" />
    <glyph glyph-name="uni0052" unicode="R" horiz-adv-x="1332" 
d="M147 0v1489h558q251 0 388.5 -129t137.5 -347q0 -152 -68.5 -260.5t-199.5 -161.5l322 -591h-301l-292 545h-275v-545h-270zM417 769h248q291 0 291 244q0 251 -292 251h-247v-495z" />
    <glyph glyph-name="uni0053" unicode="S" horiz-adv-x="1329" 
d="M956 1080q-10 95 -84.5 148t-195.5 53q-124 0 -196.5 -54t-73.5 -140q0 -44 21 -79.5t60.5 -59t79.5 -39t92 -27.5l140 -35q90 -21 163.5 -54t137.5 -83t100 -124.5t36 -167.5q-1 -200 -151 -320.5t-414 -120.5q-262 0 -416 121.5t-162 341.5h266q8 -113 93 -172.5
t217 -59.5t214.5 58.5t83.5 153.5q-1 81 -67.5 127t-200.5 80l-170 44q-397 102 -397 400q0 129 71 229.5t195.5 155t280.5 54.5q236 0 384.5 -120t152.5 -310h-260z" />
    <glyph glyph-name="uni0054" unicode="T" horiz-adv-x="1351" 
d="M81 1263v226h1189v-226h-461v-1263h-267v1263h-461z" />
    <glyph glyph-name="uni0055" unicode="U" horiz-adv-x="1502" 
d="M1087 1489h269v-984q0 -164 -80 -285.5t-216 -182t-309 -60.5q-174 0 -309.5 61t-215 182t-79.5 285v984h270v-978q0 -134 94.5 -212.5t239.5 -78.5t240.5 78.5t95.5 212.5v978z" />
    <glyph glyph-name="uni0056" unicode="V" horiz-adv-x="1482" 
d="M346 1489l388 -1172h15l387 1172h297l-525 -1489h-333l-525 1489h296z" />
    <glyph glyph-name="uni0057" unicode="W" horiz-adv-x="2061" 
d="M460 0l-420 1489h290l269 -1094h13l287 1094h264l287 -1095h13l269 1095h290l-421 -1489h-266l-298 1045h-12l-298 -1045h-267z" />
    <glyph glyph-name="uni0058" unicode="X" horiz-adv-x="1413" 
d="M372 1489l328 -545h12l329 545h308l-459 -744l466 -745h-312l-332 542h-12l-331 -542h-312l471 745l-465 744h309z" />
    <glyph glyph-name="uni0059" unicode="Y" horiz-adv-x="1442" 
d="M45 1489h305l364 -658h15l364 658h305l-542 -933v-556h-269v556z" />
    <glyph glyph-name="uni005A" unicode="Z" horiz-adv-x="1336" 
d="M119 0v168l764 1095h-768v226h1102v-168l-762 -1095h767v-226h-1103z" />
    <glyph glyph-name="uni005B" unicode="[" horiz-adv-x="805" 
d="M225 -316v1848h526v-203h-272v-1444h272v-201h-526z" />
    <glyph glyph-name="uni005C" unicode="\" horiz-adv-x="826" 
d="M72 1489h238l441 -1713h-238z" />
    <glyph glyph-name="uni005D" unicode="]" horiz-adv-x="805" 
d="M580 1531v-1848h-525v202h272v1444h-272v202h525z" />
    <glyph glyph-name="uni005E" unicode="^" horiz-adv-x="985" 
d="M72 815l305 637h232l304 -637h-213l-202 447h-11l-200 -447h-215z" />
    <glyph glyph-name="uni005F" unicode="_" horiz-adv-x="958" 
d="M961 0v-210h-962v210h962z" />
    <glyph glyph-name="uni0060" unicode="`" horiz-adv-x="1018" 
d="M719 1264h-197l-223 332h258z" />
    <glyph glyph-name="uni0061" unicode="a" horiz-adv-x="1176" 
d="M457 -23q-166 0 -270 88t-104 248q0 73 24 129.5t62 92.5t95.5 61t114 37t128.5 20q13 1 37 4q154 16 192 31q47 19 47 65v5q0 83 -49 127.5t-140 44.5t-149.5 -40t-79.5 -102l-246 35q43 150 168.5 229.5t305.5 79.5q67 0 129 -11.5t122.5 -39.5t104.5 -70.5t71 -110
t27 -152.5v-748h-254v153h-8q-40 -77 -122.5 -126.5t-205.5 -49.5zM525 171q116 0 187.5 67t71.5 163v131q-33 -27 -241 -54q-206 -30 -206 -160q0 -71 51.5 -109t136.5 -38z" />
    <glyph glyph-name="uni0062" unicode="b" horiz-adv-x="1290" 
d="M147 0v1489h263v-557h11q99 200 319 200q201 0 331 -152.5t130 -422.5q0 -269 -128.5 -423t-331.5 -154q-221 0 -320 196h-15v-176h-259zM405 559q0 -165 69.5 -264t193.5 -99q127 0 196 100.5t69 262.5q0 161 -68.5 259t-196.5 98q-125 0 -194 -96t-69 -261z" />
    <glyph glyph-name="uni0063" unicode="c" horiz-adv-x="1182" 
d="M623 -22q-247 0 -391.5 159.5t-144.5 416.5q0 258 145.5 418t388.5 160q204 0 335 -110t145 -292h-252q-16 85 -74 137t-150 52q-123 0 -197 -96.5t-74 -263.5q0 -170 73.5 -268t197.5 -98q88 0 147.5 50t76.5 139h252q-15 -181 -143 -292.5t-335 -111.5z" />
    <glyph glyph-name="uni0064" unicode="d" horiz-adv-x="1290" 
d="M550 -20q-203 0 -332 154t-129 423q0 270 130.5 422.5t331.5 152.5q220 0 319 -200h11v557h264v-1489h-259v176h-16q-99 -196 -320 -196zM623 196q124 0 193.5 99t69.5 264t-69 261t-194 96q-128 0 -196.5 -98t-68.5 -259q0 -162 69 -262.5t196 -100.5z" />
    <glyph glyph-name="uni0065" unicode="e" horiz-adv-x="1213" 
d="M630 -22q-252 0 -397.5 155t-145.5 419q0 260 145 420t384 160q106 0 196.5 -34t161.5 -101t112 -177.5t41 -252.5v-80h-779q1 -142 78.5 -223t206.5 -81q86 0 148 37t89 107l246 -27q-36 -148 -165 -235t-321 -87zM349 664h525q-1 115 -71.5 189t-182.5 74
q-115 0 -190 -76t-81 -187z" />
    <glyph glyph-name="uni0066" unicode="f" horiz-adv-x="779" 
d="M708 1117v-204h-232v-913h-263v913h-165v204h165v106q0 162 98 249t251 87q115 0 200 -30l-53 -204q-50 16 -98 16q-71 0 -103 -34t-32 -102v-88h232z" />
    <glyph glyph-name="uni0067" unicode="g" horiz-adv-x="1280" 
d="M621 -438q-202 0 -328 78t-165 200l237 57q71 -136 260 -136q119 0 189 56.5t70 171.5v212h-13q-93 -185 -321 -185q-98 0 -181 34.5t-146 101t-98.5 172t-35.5 238.5q0 134 36 243t98.5 180t146.5 109t181 38q221 0 320 -200h15v185h259v-1135q0 -137 -69 -233
t-185 -141.5t-270 -45.5zM623 223q125 0 194 90t69 251q0 162 -69 257t-194 95q-127 0 -196 -97t-69 -255t68.5 -249.5t196.5 -91.5z" />
    <glyph glyph-name="uni0068" unicode="h" horiz-adv-x="1255" 
d="M399 655v-655h-264v1489h258v-562h13q84 205 332 205q177 0 281 -110.5t104 -310.5v-711h-263v671q0 113 -58 175.5t-162 62.5q-108 0 -174.5 -67.5t-66.5 -186.5z" />
    <glyph glyph-name="uni0069" unicode="i" horiz-adv-x="533" 
d="M135 0v1117h264v-1117h-264zM268 1276q-63 0 -108 41.5t-45 100.5t45 101t108 42t107.5 -42t44.5 -101t-44.5 -100.5t-107.5 -41.5z" />
    <glyph glyph-name="uni006A" unicode="j" horiz-adv-x="533" 
d="M135 1117h264v-1179q0 -179 -101 -268.5t-291 -86.5q-8 1 -25 1.5t-26 0.5v214q15 -1 38 -1q74 0 107.5 36t33.5 108v1175zM266 1276q-63 0 -108 41.5t-45 100.5t45 101t108 42t107.5 -42t44.5 -101t-44.5 -100.5t-107.5 -41.5z" />
    <glyph glyph-name="uni006B" unicode="k" horiz-adv-x="1165" 
d="M135 0v1489h264v-821h18l401 449h308l-433 -482l458 -635h-315l-341 478l-96 -103v-375h-264z" />
    <glyph glyph-name="uni006C" unicode="l" horiz-adv-x="533" 
d="M399 1489v-1489h-264v1489h264z" />
    <glyph glyph-name="uni006D" unicode="m" horiz-adv-x="1838" 
d="M135 0v1117h252v-190h13q36 96 116.5 150.5t191.5 54.5q112 0 190.5 -54.5t111.5 -150.5h12q37 94 126 149.5t209 55.5q158 0 253.5 -100t95.5 -282v-750h-264v709q0 99 -53 150t-137 51q-94 0 -148.5 -58.5t-54.5 -154.5v-697h-258v720q0 86 -51.5 138t-135.5 52
q-86 0 -145.5 -65t-59.5 -166v-679h-264z" />
    <glyph glyph-name="uni006E" unicode="n" horiz-adv-x="1248" 
d="M399 655v-655h-264v1117h252v-190h13q39 96 125 150.5t208 54.5q176 0 280 -111.5t103 -309.5v-711h-264v671q0 112 -57.5 175t-159.5 63q-106 0 -171 -67.5t-65 -186.5z" />
    <glyph glyph-name="uni006F" unicode="o" horiz-adv-x="1245" 
d="M623 -22q-244 0 -390 158t-146 418q0 261 146 419.5t390 158.5t389.5 -158.5t145.5 -419.5q0 -260 -145.5 -418t-389.5 -158zM624 189q128 0 197.5 103t69.5 263q0 161 -69.5 264.5t-197.5 103.5q-130 0 -200 -103.5t-70 -264.5t70 -263.5t200 -102.5z" />
    <glyph glyph-name="uni0070" unicode="p" horiz-adv-x="1279" 
d="M135 -419v1536h259v-185h15q99 200 320 200q201 0 331 -152.5t130 -422.5q0 -269 -129 -423t-332 -154q-221 0 -320 196h-10v-595h-264zM393 559q0 -165 69.5 -264t193.5 -99q127 0 196 100.5t69 262.5q0 161 -68.5 259t-196.5 98q-125 0 -194 -96t-69 -261z" />
    <glyph glyph-name="uni0071" unicode="q" horiz-adv-x="1279" 
d="M1144 -419h-263v595h-11q-99 -196 -320 -196q-203 0 -332 154t-129 423q0 270 130.5 422.5t331.5 152.5q220 0 319 -200h15v185h259v-1536zM886 559q0 165 -69 261t-194 96q-128 0 -196.5 -98t-68.5 -259q0 -162 69 -262.5t196 -100.5q124 0 193.5 99t69.5 264z" />
    <glyph glyph-name="uni0072" unicode="r" horiz-adv-x="847" 
d="M135 0v1117h256v-186h11q30 96 104 149t172 53q86 0 150 -41l-82 -218q-50 23 -104 23q-104 0 -173.5 -67.5t-69.5 -172.5v-657h-264z" />
    <glyph glyph-name="uni0073" unicode="s" horiz-adv-x="1124" 
d="M1018 822l-240 -26q-16 60 -68.5 99.5t-137.5 39.5q-83 0 -138 -36t-54 -92q-1 -49 36 -79.5t121 -49.5l191 -41q159 -35 236 -109t78 -193q-1 -159 -134 -258t-343 -99q-204 0 -329 86t-150 241l257 24q35 -152 221 -152q93 0 150.5 38t57.5 96q0 94 -150 127l-191 40
q-316 65 -314 315q-1 154 124 246.5t328 92.5q192 0 306.5 -82.5t142.5 -227.5z" />
    <glyph glyph-name="uni0074" unicode="t" horiz-adv-x="778" 
d="M693 1117v-204h-220v-577q0 -74 31.5 -101.5t87.5 -27.5q40 0 77 10l44 -206q-74 -24 -154 -26q-155 -5 -253 75t-97 232v621h-158v204h158v268h264v-268h220z" />
    <glyph glyph-name="uni0075" unicode="u" horiz-adv-x="1245" 
d="M847 470v647h264v-1117h-256v199h-11q-40 -97 -127.5 -155.5t-208.5 -58.5q-168 0 -270.5 111.5t-102.5 309.5v711h264v-670q0 -106 57 -169t153 -63q95 0 166.5 67.5t71.5 187.5z" />
    <glyph glyph-name="uni0076" unicode="v" horiz-adv-x="1179" 
d="M1133 1117l-398 -1117h-291l-397 1117h280l257 -830h12l257 830h280z" />
    <glyph glyph-name="uni0077" unicode="w" horiz-adv-x="1714" 
d="M366 0l-316 1117h269l196 -785h10l201 785h265l201 -781h11l193 781h269l-316 -1117h-274l-210 755h-15l-209 -755h-275z" />
    <glyph glyph-name="uni0078" unicode="x" horiz-adv-x="1152" 
d="M351 1117l225 -412l229 412h279l-337 -558l342 -559h-277l-236 402l-234 -402h-279l340 559l-332 558h280z" />
    <glyph glyph-name="uni0079" unicode="y" horiz-adv-x="1179" 
d="M289 -435q-90 0 -165 30l61 211q58 -16 102.5 -16.5t79 27.5t58.5 88l27 72l-405 1140h279l257 -844h12l258 844h280l-451 -1262q-49 -138 -147 -214t-246 -76z" />
    <glyph glyph-name="uni007A" unicode="z" horiz-adv-x="1150" 
d="M121 0v167l576 722v10h-557v218h879v-180l-548 -709v-10h567v-218h-917z" />
    <glyph glyph-name="uni007B" unicode="{" horiz-adv-x="805" 
d="M751 -316q-92 0 -160 10t-127.5 36.5t-96.5 71.5t-57.5 115.5t-20.5 167.5v185q0 116 -49.5 165.5t-171.5 49.5v244q122 0 171.5 50t49.5 166v185q0 97 20.5 167.5t57.5 115.5t96 72t127.5 37t160.5 10v-203q-123 0 -167 -50.5t-44 -169.5v-238q0 -95 -53 -159t-189 -91
v-28q137 -27 189.5 -90t52.5 -158v-239q0 -119 44 -170t167 -51v-201z" />
    <glyph glyph-name="uni007C" unicode="|" horiz-adv-x="733" 
d="M489 1969v-2449h-245v2449h245z" />
    <glyph glyph-name="uni007D" unicode="}" horiz-adv-x="805" 
d="M55 1531q116 0 196 -17t142.5 -60.5t92.5 -123.5t30 -201v-184q0 -116 50 -166t172 -50v-244q-122 0 -172 -49.5t-50 -165.5v-186q0 -97 -20.5 -167.5t-57.5 -115.5t-96 -71.5t-127 -36.5t-160 -10v202q123 0 167 50.5t44 169.5v239q0 46 10.5 82t36.5 69.5t75 58.5
t120 39v28q-71 14 -120 39t-75 58.5t-36.5 69.5t-10.5 82v238q0 119 -44 170t-167 51v202z" />
    <glyph glyph-name="uni007E" unicode="~" horiz-adv-x="1357" 
d="M150 415q-5 191 79.5 294t225.5 103q71 0 132.5 -29.5t141.5 -100.5q51 -45 80 -61.5t65 -16.5q57 0 90 43.5t32 127.5h211q6 -191 -80 -293t-226 -102q-71 0 -133.5 29.5t-141.5 98.5q-53 47 -80.5 63t-62.5 16q-57 0 -90 -42t-32 -130h-211z" />
    <glyph glyph-name="uni00A0" unicode="&#xa0;" horiz-adv-x="508" 
 />
    <glyph glyph-name="uni00A1" unicode="&#xa1;" horiz-adv-x="632" 
d="M457 -377h-281l23 1052h234zM316 1129q65 0 112 -47t48 -113q-1 -65 -48 -112t-112 -47q-67 0 -114 47t-46 112q-1 67 46 113.5t114 46.5z" />
    <glyph glyph-name="uni00A2" unicode="&#xa2;" horiz-adv-x="1182" 
d="M553 -186v168q-217 23 -341.5 178.5t-124.5 393.5t126 394.5t340 179.5v167h129v-166q180 -17 293 -124t126 -275h-252q-13 69 -56.5 118.5t-110.5 64.5v-714q66 15 109.5 62t57.5 121h252q-13 -167 -124.5 -276t-294.5 -125v-167h-129zM553 202v708q-92 -27 -145.5 -119
t-53.5 -232q0 -143 53 -236.5t146 -120.5z" />
    <glyph glyph-name="uni00A3" unicode="&#xa3;" horiz-adv-x="1347" 
d="M1191 0h-1050v226h82q34 4 54 38t26 73.5t5 85.5l-5 165h-167v221h159l-8 249q-4 108 30.5 195t98 142.5t148 85t181.5 29.5q218 0 345 -125t107 -309l-252 21q6 93 -50.5 142t-142.5 49q-87 0 -145 -59t-57 -171l9 -249h336v-221h-328l6 -153q6 -132 -60 -209h678v-226z
" />
    <glyph glyph-name="uni00A4" unicode="&#xa4;" horiz-adv-x="1537" 
d="M161 608q0 205 115 370l-145 146l132 137l146 -145q158 117 358 117q203 0 362 -121l147 149l134 -137l-150 -149q115 -163 115 -367q0 -193 -105 -355l140 -138l-134 -137l-133 135q-165 -133 -376 -133q-209 0 -372 130l-132 -132l-132 137l135 135q-105 159 -105 358z
M339 608q-1 -187 124 -318t304 -131q177 0 302 131t125 318q0 188 -124.5 318.5t-302.5 130.5q-118 0 -216.5 -59t-155 -162.5t-56.5 -227.5z" />
    <glyph glyph-name="uni00A5" unicode="&#xa5;" horiz-adv-x="1155" 
d="M311 1489l267 -623l266 623h283l-346 -730h233v-163h-306v-125h306v-163h-306v-308h-267v308h-320v163h320v125h-320v163h253l-345 730h282z" />
    <glyph glyph-name="uni00A6" unicode="&#xa6;" horiz-adv-x="652" 
d="M207 411h238v-690h-238v690zM445 1489v-687h-238v687h238z" />
    <glyph glyph-name="uni00A7" unicode="&#xa7;" horiz-adv-x="1185" 
d="M989 1126h-237q0 72 -42.5 116t-124.5 44q-71 0 -115.5 -34t-43.5 -87q-1 -51 43 -94t101 -70l280 -141q237 -118 224 -331q-5 -81 -63 -140.5t-127 -81.5l-2 -3q115 -101 117 -259q-1 -162 -117 -254t-293 -92q-194 0 -314.5 106.5t-119.5 284.5h238q-1 -81 53 -125
t145 -41q70 1 119 32t50 89q0 31 -13 57t-37.5 47t-43.5 33t-48 27l-280 139q-238 114 -225 333q5 82 61.5 143t129.5 81v3q-116 113 -116 257q0 150 111.5 247.5t285.5 97.5q181 0 292.5 -107.5t111.5 -276.5zM851 519q6 90 -124 151l-257 129q-43 21 -87.5 -13.5
t-47.5 -94.5q-7 -89 125 -152l252 -124q39 -20 87.5 13t51.5 91z" />
    <glyph glyph-name="uni00A8" unicode="&#xa8;" horiz-adv-x="1133" 
d="M349 1281q-57 0 -99 41t-42 96q0 58 41.5 98t99.5 40q59 0 99.5 -40t40.5 -98q0 -56 -40.5 -96.5t-99.5 -40.5zM785 1281q-57 0 -99 41t-42 96q0 58 41.5 98t99.5 40q59 0 99.5 -40t40.5 -98q0 -56 -40.5 -96.5t-99.5 -40.5z" />
    <glyph glyph-name="uni00A9" unicode="&#xa9;" horiz-adv-x="1726" 
d="M140 730q0 155 57.5 294.5t155 238.5t231 157t279.5 58q148 0 282 -58t231 -157t154 -238.5t57 -294.5q0 -156 -57 -296t-154.5 -239t-231 -157t-281.5 -58q-146 0 -279.5 58t-231 157t-155 239t-57.5 296zM264 730q0 -130 48 -246.5t128.5 -199.5t191 -131t231.5 -48
q123 0 234 48t191.5 131t127.5 199t47 247q0 129 -47 245t-127.5 198.5t-191.5 131t-234 48.5q-121 0 -231.5 -48.5t-191 -131t-128.5 -198.5t-48 -245zM1033 596h160q0 -154 -91 -234t-251 -80q-162 0 -259 106.5t-97 280.5v119q0 174 97 280.5t259 106.5q160 0 251 -80
t91 -234h-159q1 94 -45 137t-138 43q-95 0 -146 -69t-52 -184v-119q1 -115 52 -184t146 -69q92 0 137 42t45 138z" />
    <glyph glyph-name="uni00AA" unicode="&#xaa;" horiz-adv-x="971" 
d="M617 775q-79 -83 -205 -83q-121 0 -187.5 61.5t-66.5 165.5q0 113 87.5 172.5t261.5 59.5h102v50q0 128 -118 128q-67 0 -103.5 -25t-36.5 -73l-177 13q0 102 87.5 168t229.5 66q137 0 217 -71.5t80 -205.5v-314q0 -109 27 -182h-181q-11 33 -17 70zM609 1034h-102
q-84 0 -127 -31.5t-43 -78.5q0 -88 119 -88q40 0 82.5 18t70.5 44v136z" />
    <glyph glyph-name="uni00AB" unicode="&#xab;" horiz-adv-x="1223" 
d="M1100 160h-237l-294 436v21l294 436h237l-277 -446zM656 160h-237l-294 436v21l294 436h237l-276 -446z" />
    <glyph glyph-name="uni00AC" unicode="&#xac;" horiz-adv-x="1160" 
d="M1008 806v-431h-204v259h-648v172h852z" />
    <glyph glyph-name="uni00AD" unicode="&#xad;" horiz-adv-x="954" 
d="M812 729v-217h-670v217h670z" />
    <glyph glyph-name="uni00AE" unicode="&#xae;" horiz-adv-x="1726" 
d="M140 730q0 155 57.5 294.5t155 238.5t231 157t279.5 58q148 0 282 -58t231 -157t154 -238.5t57 -294.5q0 -156 -57 -296t-154.5 -239t-231 -157t-281.5 -58q-146 0 -279.5 58t-231 157t-155 239t-57.5 296zM264 730q0 -130 48 -246.5t128.5 -199.5t191 -131t231.5 -48
q123 0 234 48t191.5 131t127.5 199t47 247q0 129 -47 245t-127.5 198.5t-191.5 131t-234 48.5q-121 0 -231.5 -48.5t-191 -131t-128.5 -198.5t-48 -245zM878 655h-159v-338h-155v850h287q155 0 243 -67t88 -194q0 -115 -118 -177q115 -55 115 -214v-55q0 -84 17 -128v-15
h-157q-15 32 -15 143v55q0 72 -33.5 106t-112.5 34zM719 788h141q71 0 120.5 31t49.5 86q0 72 -40 100t-139 28h-132v-245z" />
    <glyph glyph-name="uni00AF" unicode="&#xaf;" horiz-adv-x="1077" 
d="M889 1489v-160h-700v160h700z" />
    <glyph glyph-name="uni00B0" unicode="&#xb0;" horiz-adv-x="938" 
d="M469 797q-145 0 -247.5 102.5t-102.5 247.5t102.5 247.5t247.5 102.5t247.5 -102.5t102.5 -247.5t-102.5 -247.5t-247.5 -102.5zM469 983q68 0 116 48t48 116q0 67 -48.5 115.5t-115.5 48.5q-68 0 -116 -48t-48 -116t48 -116t116 -48z" />
    <glyph glyph-name="uni00B1" unicode="&#xb1;" horiz-adv-x="1357" 
d="M181 660v214h383v266h229v-266h383v-214h-383v-267h-229v267h-383zM181 60v219h995v-219h-995z" />
    <glyph glyph-name="uni00B2" unicode="&#xb2;" horiz-adv-x="865" 
d="M94 745v144l350 291q76 64 107.5 103t31.5 87q0 56 -44 88.5t-111 32.5q-71 0 -113 -35.5t-42 -97.5h-193q0 133 97.5 212t253.5 79q154 0 249 -78.5t95 -197.5q0 -91 -56 -166.5t-186 -171.5l-150 -119v-7h408v-164h-697z" />
    <glyph glyph-name="uni00B3" unicode="&#xb3;" horiz-adv-x="897" 
d="M447 733q-161 0 -266 74.5t-108 193.5h206q3 -46 50 -73.5t118 -27.5q73 0 120.5 31t47.5 81t-50.5 82t-136.5 32h-92v149h92q72 0 118 30t46 79q0 47 -40 77t-103 30q-68 0 -114 -29t-48 -76h-193q2 116 103.5 189.5t252.5 73.5q150 0 244 -72t94 -181q0 -76 -52 -125
t-133 -61v-7q105 -11 163.5 -66t58.5 -139q0 -116 -106.5 -190.5t-271.5 -74.5z" />
    <glyph glyph-name="uni00B4" unicode="&#xb4;" horiz-adv-x="1018" 
d="M299 1264l162 332h258l-223 -332h-197z" />
    <glyph glyph-name="uni00B5" unicode="&#xb5;" horiz-adv-x="1334" 
d="M135 -409v1526h264v-647q0 -114 74.5 -184.5t194.5 -70.5t194.5 71t73.5 184v647h264v-1117h-256v161h-9q-36 -77 -107.5 -119.5t-159.5 -42.5t-160 42.5t-109 119.5h-8v-570h-256z" />
    <glyph glyph-name="uni00B6" unicode="&#xb6;" horiz-adv-x="1241" 
d="M871 0v1277h-181v-724h-86q-237 0 -369 129.5t-132 338.5q0 207 132 337.5t369 130.5h491v-1489h-224z" />
    <glyph glyph-name="uni00B7" unicode="&#xb7;" horiz-adv-x="595" 
d="M303 564q-67 0 -114 46.5t-46 113.5q-1 65 46 112t114 47q65 0 112 -47t48 -112q-1 -66 -48 -113t-112 -47z" />
    <glyph glyph-name="uni00B8" unicode="&#xb8;" horiz-adv-x="693" 
d="M277 6h143l-12 -62q73 -11 118.5 -55t45.5 -120q1 -104 -93.5 -166.5t-264.5 -62.5l-3 130q182 0 183 92q1 45 -34 67.5t-114 30.5z" />
    <glyph glyph-name="uni00B9" unicode="&#xb9;" horiz-adv-x="638" 
d="M481 1638v-893h-197v647h-9q-19 -25 -72.5 -44.5t-131.5 -18.5v160q91 1 153 50t65 99h192z" />
    <glyph glyph-name="uni00BA" unicode="&#xba;" horiz-adv-x="968" 
d="M131 1044v77q0 158 96.5 257.5t256.5 99.5q161 0 257 -99.5t96 -257.5v-77q0 -157 -94.5 -255t-255.5 -98q-163 0 -259.5 98t-96.5 255zM309 1121v-77q0 -93 46 -149.5t132 -56.5q84 0 128 56.5t44 149.5v77q0 92 -44.5 150t-130.5 58q-84 0 -129.5 -58.5t-45.5 -149.5z
" />
    <glyph glyph-name="uni00BB" unicode="&#xbb;" horiz-adv-x="1227" 
d="M563 160l276 447l-276 446h237l294 -436v-21l-294 -436h-237zM115 160l276 447l-276 446h237l294 -436v-21l-294 -436h-237z" />
    <glyph glyph-name="uni00BC" unicode="&#xbc;" horiz-adv-x="1816" 
d="M1044 132v147l373 512h232v-509h115v-150h-115v-132h-176v132h-429zM257 0l1024 1489h182l-1024 -1489h-182zM438 1489v-791h-183v566h-9q-16 -22 -64.5 -38.5t-117.5 -15.5v148q82 -1 137.5 42t58.5 89h178zM1476 282v310h-7l-236 -305v-5h243z" />
    <glyph glyph-name="uni00BD" unicode="&#xbd;" horiz-adv-x="1882" 
d="M1185 0v134l318 254q66 54 94.5 88t28.5 75q0 48 -39 76.5t-100 28.5q-62 0 -100.5 -30.5t-38.5 -84.5h-176q0 119 88 190.5t230 71.5q140 0 226 -71.5t86 -178.5q0 -82 -50.5 -148t-168.5 -150l-131 -96v-8h365v-151h-632zM257 0l1024 1489h182l-1024 -1489h-182z
M438 1489v-791h-183v566h-9q-16 -22 -64.5 -38.5t-117.5 -15.5v148q82 -1 137.5 42t58.5 89h178z" />
    <glyph glyph-name="uni00BE" unicode="&#xbe;" horiz-adv-x="1978" 
d="M1206 132v147l373 512h233v-509h114v-150h-114v-132h-177v132h-429zM404 687q-149 0 -243 68t-96 173h190q1 -39 43.5 -63t104.5 -24q66 0 108 26t42 68q0 43 -44.5 70t-120.5 27h-85v137h85q63 0 104 26.5t41 67.5t-35 66t-92 25q-58 0 -100 -25t-43 -64h-180
q3 103 95 169.5t229 66.5q136 0 221.5 -64t85.5 -161q0 -66 -46 -110.5t-122 -54.5v-7q96 -10 148 -58.5t52 -122.5q0 -103 -96.5 -169.5t-245.5 -66.5zM419 0l1024 1489h182l-1024 -1489h-182zM1638 282v310h-7l-235 -305v-5h242z" />
    <glyph glyph-name="uni00BF" unicode="&#xbf;" horiz-adv-x="1114" 
d="M727 668v-19q0 -126 -26 -208.5t-66 -125.5t-112 -88q-156 -97 -156 -227q0 -84 58 -136t143 -52q83 0 143 52.5t65 149.5h259q-3 -134 -67.5 -230t-167.5 -142t-233 -46q-210 0 -340 108.5t-130 291.5q0 226 218 356q62 38 97.5 76t54 91.5t18.5 129.5v19h242zM600 1122
q67 0 114 -46.5t46 -113.5q1 -65 -46 -111.5t-114 -46.5q-65 0 -112 46.5t-48 111.5q1 66 48 113t112 47z" />
    <glyph glyph-name="uni00C0" unicode="&#xc0;" horiz-adv-x="1482" 
d="M338 0h-288l525 1489h333l525 -1489h-288l-124 367h-560zM534 584h414l-201 600h-12zM842 1636h-197l-223 333h258z" />
    <glyph glyph-name="uni00C1" unicode="&#xc1;" horiz-adv-x="1482" 
d="M338 0h-288l525 1489h333l525 -1489h-288l-124 367h-560zM534 584h414l-201 600h-12zM641 1636l162 333h258l-223 -333h-197z" />
    <glyph glyph-name="uni00C2" unicode="&#xc2;" horiz-adv-x="1482" 
d="M338 0h-288l525 1489h333l525 -1489h-288l-124 367h-560zM593 1623h-230v10l276 315h205l275 -315v-10h-230l-148 186zM534 584h414l-201 600h-12z" />
    <glyph glyph-name="uni00C3" unicode="&#xc3;" horiz-adv-x="1482" 
d="M338 0h-288l525 1489h333l525 -1489h-288l-124 367h-560zM527 1636l-159 4q0 127 66 201.5t166 74.5q32 0 62.5 -10t48 -19.5t45.5 -28.5q70 -45 111 -45t65.5 31t25.5 80l156 -6q-1 -126 -66.5 -199.5t-165.5 -74.5q-36 0 -68.5 10t-48.5 19.5t-44 29.5q-61 44 -106 44
q-39 0 -63.5 -31t-24.5 -80zM534 584h414l-201 600h-12z" />
    <glyph glyph-name="uni00C4" unicode="&#xc4;" horiz-adv-x="1482" 
d="M338 0h-288l525 1489h333l525 -1489h-288l-124 367h-560zM534 584h414l-201 600h-12zM524 1654q-57 0 -99 41t-42 96q0 58 41.5 97.5t99.5 39.5q59 0 99 -39.5t40 -97.5q0 -56 -40.5 -96.5t-98.5 -40.5zM960 1654q-57 0 -99 41t-42 96q0 58 41.5 97.5t99.5 39.5
q59 0 99.5 -39.5t40.5 -97.5q0 -55 -41 -96t-99 -41z" />
    <glyph glyph-name="uni00C5" unicode="&#xc5;" horiz-adv-x="1482" 
d="M338 0h-288l525 1489h333l525 -1489h-288l-124 367h-560zM741 1575q-98 0 -168 66.5t-70 159.5t70 159.5t168 66.5q99 0 168.5 -66.5t69.5 -159.5t-69.5 -159.5t-168.5 -66.5zM534 584h414l-201 600h-12zM741 1697q45 0 77 30.5t32 73.5t-32 74t-77 31
q-45 -1 -76.5 -31.5t-31.5 -73.5q0 -44 31.5 -74.5t76.5 -29.5z" />
    <glyph glyph-name="uni00C6" unicode="&#xc6;" horiz-adv-x="2082" 
d="M50 0l666 1489h1237v-226h-698v-404h648v-226h-648v-407h704v-226h-974v367h-479l-159 -367h-297zM600 584h385v645h-106z" />
    <glyph glyph-name="uni00C7" unicode="&#xc7;" horiz-adv-x="1522" 
d="M1422 987h-272q-23 131 -119.5 206t-234.5 75q-187 0 -301.5 -138t-114.5 -385q0 -250 114.5 -386.5t300.5 -136.5q136 0 233 72t122 201l272 -2q-30 -207 -182.5 -350t-385.5 -161l-8 -42q73 -11 118 -55.5t45 -120.5q1 -104 -93 -166t-264 -62l-3 129q182 0 183 93
q1 45 -33.5 67t-114.5 30l27 129q-269 28 -435.5 230.5t-166.5 530.5q0 177 52 322t143 241.5t216 149t271 52.5q252 0 424.5 -139.5t206.5 -383.5z" />
    <glyph glyph-name="uni00C8" unicode="&#xc8;" horiz-adv-x="1244" 
d="M147 0v1489h969v-226h-699v-404h648v-226h-648v-407h704v-226h-974zM732 1636h-197l-223 333h258z" />
    <glyph glyph-name="uni00C9" unicode="&#xc9;" horiz-adv-x="1244" 
d="M147 0v1489h969v-226h-699v-404h648v-226h-648v-407h704v-226h-974zM531 1636l162 333h258l-223 -333h-197z" />
    <glyph glyph-name="uni00CA" unicode="&#xca;" horiz-adv-x="1244" 
d="M147 0v1489h969v-226h-699v-404h648v-226h-648v-407h704v-226h-974zM484 1623h-230v10l275 315h206l275 -315v-10h-230l-148 186z" />
    <glyph glyph-name="uni00CB" unicode="&#xcb;" horiz-adv-x="1244" 
d="M147 0v1489h969v-226h-699v-404h648v-226h-648v-407h704v-226h-974zM415 1654q-57 0 -99.5 41t-42.5 96q0 58 42 97.5t100 39.5q59 0 99 -39.5t40 -97.5q0 -56 -40.5 -96.5t-98.5 -40.5zM851 1654q-57 0 -99 41t-42 96q0 58 41.5 97.5t99.5 39.5q59 0 99.5 -39.5
t40.5 -97.5q0 -55 -40.5 -96t-99.5 -41z" />
    <glyph glyph-name="uni00CC" unicode="&#xcc;" horiz-adv-x="562" 
d="M417 1489v-1489h-270v1489h270zM383 1636h-197l-223 333h258z" />
    <glyph glyph-name="uni00CD" unicode="&#xcd;" horiz-adv-x="562" 
d="M417 1489v-1489h-270v1489h270zM181 1636l162 333h258l-223 -333h-197z" />
    <glyph glyph-name="uni00CE" unicode="&#xce;" horiz-adv-x="562" 
d="M417 1489v-1489h-270v1489h270zM135 1623h-231v10l276 315h205l275 -315v-10h-230l-148 186z" />
    <glyph glyph-name="uni00CF" unicode="&#xcf;" horiz-adv-x="562" 
d="M417 1489v-1489h-270v1489h270zM65 1654q-57 0 -99 41t-42 96q0 58 41.5 97.5t99.5 39.5q59 0 99 -39.5t40 -97.5q0 -56 -40.5 -96.5t-98.5 -40.5zM501 1654q-57 0 -99 41t-42 96q0 58 41.5 97.5t99.5 39.5q59 0 99.5 -39.5t40.5 -97.5q0 -55 -40.5 -96t-99.5 -41z" />
    <glyph glyph-name="uni00D0" unicode="&#xd0;" horiz-adv-x="1483" 
d="M652 0h-505v697h-215v166h215v626h515q333 0 523 -197.5t190 -545.5q0 -349 -191.5 -547.5t-531.5 -198.5zM417 233h222q468 0 468 513q0 510 -460 510h-230v-393h212v-166h-212v-464z" />
    <glyph glyph-name="uni00D1" unicode="&#xd1;" horiz-adv-x="1517" 
d="M1371 1489v-1489h-240l-702 1015h-12v-1015h-270v1489h241l701 -1015h14v1015h268zM545 1625l-159 4q0 127 66 201.5t166 74.5q32 0 63 -9.5t49 -20t45 -28.5q26 -17 37 -23t32 -14t41 -8q41 0 65.5 31t25.5 80l156 -6q-1 -126 -66.5 -199.5t-165.5 -74.5q-36 0 -68.5 10
t-48.5 19.5t-44 29.5q-61 44 -106 44q-39 0 -63.5 -31t-24.5 -80z" />
    <glyph glyph-name="uni00D2" unicode="&#xd2;" horiz-adv-x="1586" 
d="M1478 745q0 -177 -52 -322t-144 -241.5t-217 -149t-272 -52.5t-272 52.5t-216.5 149t-143.5 241.5t-52 322t52 322t143.5 241.5t216.5 149t272 52.5t272 -52.5t217 -149t144 -241.5t52 -322zM1207 745q0 249 -113.5 386t-300.5 137q-186 0 -299.5 -137.5t-113.5 -385.5
t113.5 -385.5t299.5 -137.5q187 0 300.5 137t113.5 386zM895 1636h-198l-223 333h258z" />
    <glyph glyph-name="uni00D3" unicode="&#xd3;" horiz-adv-x="1586" 
d="M1478 745q0 -177 -52 -322t-144 -241.5t-217 -149t-272 -52.5t-272 52.5t-216.5 149t-143.5 241.5t-52 322t52 322t143.5 241.5t216.5 149t272 52.5t272 -52.5t217 -149t144 -241.5t52 -322zM1207 745q0 249 -113.5 386t-300.5 137q-186 0 -299.5 -137.5t-113.5 -385.5
t113.5 -385.5t299.5 -137.5q187 0 300.5 137t113.5 386zM693 1636l162 333h258l-223 -333h-197z" />
    <glyph glyph-name="uni00D4" unicode="&#xd4;" horiz-adv-x="1586" 
d="M1478 745q0 -177 -52 -322t-144 -241.5t-217 -149t-272 -52.5t-272 52.5t-216.5 149t-143.5 241.5t-52 322t52 322t143.5 241.5t216.5 149t272 52.5t272 -52.5t217 -149t144 -241.5t52 -322zM1207 745q0 249 -113.5 386t-300.5 137q-186 0 -299.5 -137.5t-113.5 -385.5
t113.5 -385.5t299.5 -137.5q187 0 300.5 137t113.5 386zM646 1623h-231v10l276 315h206l275 -315v-10h-231l-148 186z" />
    <glyph glyph-name="uni00D5" unicode="&#xd5;" horiz-adv-x="1586" 
d="M1478 745q0 -177 -52 -322t-144 -241.5t-217 -149t-272 -52.5t-272 52.5t-216.5 149t-143.5 241.5t-52 322t52 322t143.5 241.5t216.5 149t272 52.5t272 -52.5t217 -149t144 -241.5t52 -322zM1207 745q0 249 -113.5 386t-300.5 137q-186 0 -299.5 -137.5t-113.5 -385.5
t113.5 -385.5t299.5 -137.5q187 0 300.5 137t113.5 386zM580 1636l-160 4q0 127 66 201.5t166 74.5q32 0 63 -9.5t49 -20t45 -28.5q26 -17 37 -23t32 -14t41 -8q41 0 65.5 31t25.5 80l157 -6q-1 -126 -66.5 -199.5t-165.5 -74.5q-36 0 -69 10t-49 20t-44 29
q-21 15 -32.5 22.5t-31.5 14.5t-41 7q-39 0 -63.5 -31t-24.5 -80z" />
    <glyph glyph-name="uni00D6" unicode="&#xd6;" horiz-adv-x="1586" 
d="M1478 745q0 -177 -52 -322t-144 -241.5t-217 -149t-272 -52.5t-272 52.5t-216.5 149t-143.5 241.5t-52 322t52 322t143.5 241.5t216.5 149t272 52.5t272 -52.5t217 -149t144 -241.5t52 -322zM1207 745q0 249 -113.5 386t-300.5 137q-186 0 -299.5 -137.5t-113.5 -385.5
t113.5 -385.5t299.5 -137.5q187 0 300.5 137t113.5 386zM576 1654q-57 0 -99 41t-42 96q0 58 41.5 97.5t99.5 39.5q59 0 99.5 -39.5t40.5 -97.5q0 -55 -41 -96t-99 -41zM1012 1654q-57 0 -99 41t-42 96q0 58 41.5 97.5t99.5 39.5q59 0 99.5 -39.5t40.5 -97.5q0 -55 -41 -96
t-99 -41z" />
    <glyph glyph-name="uni00D7" unicode="&#xd7;" horiz-adv-x="1357" 
d="M1023 83l-344 344l-345 -344l-164 164l344 344l-344 344l164 165l345 -345l344 345l164 -165l-344 -344l344 -344z" />
    <glyph glyph-name="uni00D8" unicode="&#xd8;" horiz-adv-x="1586" 
d="M329 -68l-131 90l109 158q-198 211 -198 565q0 177 52 322t143.5 241.5t216.5 149t272 52.5q205 0 363 -98l99 143l131 -90l-106 -154q198 -211 198 -566q0 -177 -52 -322t-144 -241.5t-217 -149t-272 -52.5q-204 0 -362 99zM1207 745q0 205 -82 341l-552 -800
q96 -64 220 -64q187 0 300.5 137t113.5 386zM462 404l551 800q-96 64 -220 64q-186 0 -299.5 -137.5t-113.5 -385.5q0 -205 82 -341z" />
    <glyph glyph-name="uni00D9" unicode="&#xd9;" horiz-adv-x="1502" 
d="M1087 1489h269v-984q0 -164 -80 -285.5t-216 -182t-309 -60.5q-174 0 -309.5 61t-215 182t-79.5 285v984h270v-978q0 -134 94.5 -212.5t239.5 -78.5t240.5 78.5t95.5 212.5v978zM852 1636h-197l-224 333h258z" />
    <glyph glyph-name="uni00DA" unicode="&#xda;" horiz-adv-x="1502" 
d="M1087 1489h269v-984q0 -164 -80 -285.5t-216 -182t-309 -60.5q-174 0 -309.5 61t-215 182t-79.5 285v984h270v-978q0 -134 94.5 -212.5t239.5 -78.5t240.5 78.5t95.5 212.5v978zM650 1636l162 333h259l-224 -333h-197z" />
    <glyph glyph-name="uni00DB" unicode="&#xdb;" horiz-adv-x="1502" 
d="M1087 1489h269v-984q0 -164 -80 -285.5t-216 -182t-309 -60.5q-174 0 -309.5 61t-215 182t-79.5 285v984h270v-978q0 -134 94.5 -212.5t239.5 -78.5t240.5 78.5t95.5 212.5v978zM604 1623h-231v10l276 315h206l274 -315v-10h-230l-148 186z" />
    <glyph glyph-name="uni00DC" unicode="&#xdc;" horiz-adv-x="1502" 
d="M1087 1489h269v-984q0 -164 -80 -285.5t-216 -182t-309 -60.5q-174 0 -309.5 61t-215 182t-79.5 285v984h270v-978q0 -134 94.5 -212.5t239.5 -78.5t240.5 78.5t95.5 212.5v978zM534 1654q-57 0 -99 41t-42 96q0 58 41.5 97.5t99.5 39.5q59 0 99 -39.5t40 -97.5
q0 -56 -40.5 -96.5t-98.5 -40.5zM970 1654q-57 0 -99 41t-42 96q0 58 41.5 97.5t99.5 39.5q59 0 99.5 -39.5t40.5 -97.5q0 -55 -41 -96t-99 -41z" />
    <glyph glyph-name="uni00DD" unicode="&#xdd;" horiz-adv-x="1442" 
d="M45 1489h305l364 -658h15l364 658h305l-542 -933v-556h-269v556zM620 1636l163 333h258l-224 -333h-197z" />
    <glyph glyph-name="uni00DE" unicode="&#xde;" horiz-adv-x="1346" 
d="M141 1489h270v-285h241q252 0 393.5 -125t141.5 -321t-141.5 -320.5t-393.5 -124.5h-241v-313h-270v1489zM411 528h241q136 0 206.5 62t70.5 165q0 105 -70.5 169t-206.5 64h-241v-460z" />
    <glyph glyph-name="uni00DF" unicode="&#xdf;" horiz-adv-x="1322" 
d="M147 0v1100q0 190 132 300t353 110q140 0 251.5 -45t179 -136t67.5 -216q0 -118 -59.5 -202t-161.5 -115v-16q144 -11 231.5 -112.5t86.5 -257.5q-1 -188 -128 -299t-335 -111h-186v222h154q104 0 166.5 57t62.5 151q-1 98 -70 157.5t-186 59.5h-121v216h83
q87 0 141 61.5t55 149.5q0 91 -61 150.5t-163 59.5t-165.5 -59t-63.5 -155v-1070h-263z" />
    <glyph glyph-name="uni00E0" unicode="&#xe0;" horiz-adv-x="1176" 
d="M457 -23q-166 0 -270 88t-104 248q0 73 24 129.5t62 92.5t95.5 61t114 37t128.5 20q13 1 37 4q154 16 192 31q47 19 47 65v5q0 83 -49 127.5t-140 44.5t-149.5 -40t-79.5 -102l-246 35q43 150 168.5 229.5t305.5 79.5q67 0 129 -11.5t122.5 -39.5t104.5 -70.5t71 -110
t27 -152.5v-748h-254v153h-8q-40 -77 -122.5 -126.5t-205.5 -49.5zM525 171q116 0 187.5 67t71.5 163v131q-33 -27 -241 -54q-206 -30 -206 -160q0 -71 51.5 -109t136.5 -38zM705 1264h-197l-223 332h258z" />
    <glyph glyph-name="uni00E1" unicode="&#xe1;" horiz-adv-x="1176" 
d="M457 -23q-166 0 -270 88t-104 248q0 73 24 129.5t62 92.5t95.5 61t114 37t128.5 20q13 1 37 4q154 16 192 31q47 19 47 65v5q0 83 -49 127.5t-140 44.5t-149.5 -40t-79.5 -102l-246 35q43 150 168.5 229.5t305.5 79.5q67 0 129 -11.5t122.5 -39.5t104.5 -70.5t71 -110
t27 -152.5v-748h-254v153h-8q-40 -77 -122.5 -126.5t-205.5 -49.5zM525 171q116 0 187.5 67t71.5 163v131q-33 -27 -241 -54q-206 -30 -206 -160q0 -71 51.5 -109t136.5 -38zM504 1264l162 332h258l-223 -332h-197z" />
    <glyph glyph-name="uni00E2" unicode="&#xe2;" horiz-adv-x="1176" 
d="M457 -23q-166 0 -270 88t-104 248q0 73 24 129.5t62 92.5t95.5 61t114 37t128.5 20q13 1 37 4q154 16 192 31q47 19 47 65v5q0 83 -49 127.5t-140 44.5t-149.5 -40t-79.5 -102l-246 35q43 150 168.5 229.5t305.5 79.5q67 0 129 -11.5t122.5 -39.5t104.5 -70.5t71 -110
t27 -152.5v-748h-254v153h-8q-40 -77 -122.5 -126.5t-205.5 -49.5zM457 1251h-231v10l276 314h206l275 -314v-10h-231l-148 186zM525 171q116 0 187.5 67t71.5 163v131q-33 -27 -241 -54q-206 -30 -206 -160q0 -71 51.5 -109t136.5 -38z" />
    <glyph glyph-name="uni00E3" unicode="&#xe3;" horiz-adv-x="1176" 
d="M457 -23q-166 0 -270 88t-104 248q0 73 24 129.5t62 92.5t95.5 61t114 37t128.5 20q13 1 37 4q154 16 192 31q47 19 47 65v5q0 83 -49 127.5t-140 44.5t-149.5 -40t-79.5 -102l-246 35q43 150 168.5 229.5t305.5 79.5q67 0 129 -11.5t122.5 -39.5t104.5 -70.5t71 -110
t27 -152.5v-748h-254v153h-8q-40 -77 -122.5 -126.5t-205.5 -49.5zM391 1253l-160 4q0 127 66 201.5t166 74.5q32 0 63 -9.5t49 -20t45 -28.5q26 -17 37 -23t32 -14t41 -8q41 0 65.5 31t25.5 80l156 -6q-1 -126 -66.5 -200t-165.5 -75q-36 0 -68.5 10t-48.5 19.5t-44 29.5
q-22 16 -33 23t-31 14.5t-41 7.5q-39 0 -63.5 -31t-24.5 -80zM525 171q116 0 187.5 67t71.5 163v131q-33 -27 -241 -54q-206 -30 -206 -160q0 -71 51.5 -109t136.5 -38z" />
    <glyph glyph-name="uni00E4" unicode="&#xe4;" horiz-adv-x="1176" 
d="M457 -23q-166 0 -270 88t-104 248q0 73 24 129.5t62 92.5t95.5 61t114 37t128.5 20q13 1 37 4q154 16 192 31q47 19 47 65v5q0 83 -49 127.5t-140 44.5t-149.5 -40t-79.5 -102l-246 35q43 150 168.5 229.5t305.5 79.5q67 0 129 -11.5t122.5 -39.5t104.5 -70.5t71 -110
t27 -152.5v-748h-254v153h-8q-40 -77 -122.5 -126.5t-205.5 -49.5zM525 171q116 0 187.5 67t71.5 163v131q-33 -27 -241 -54q-206 -30 -206 -160q0 -71 51.5 -109t136.5 -38zM387 1281q-57 0 -99 41t-42 96q0 58 41.5 98t99.5 40q59 0 99.5 -40t40.5 -98q0 -56 -40.5 -96.5
t-99.5 -40.5zM823 1281q-57 0 -99 41t-42 96q0 58 41.5 98t99.5 40q59 0 99.5 -40t40.5 -98q0 -56 -40.5 -96.5t-99.5 -40.5z" />
    <glyph glyph-name="uni00E5" unicode="&#xe5;" horiz-adv-x="1176" 
d="M457 -23q-166 0 -270 88t-104 248q0 73 24 129.5t62 92.5t95.5 61t114 37t128.5 20q13 1 37 4q154 16 192 31q47 19 47 65v5q0 83 -49 127.5t-140 44.5t-149.5 -40t-79.5 -102l-246 35q43 150 168.5 229.5t305.5 79.5q67 0 129 -11.5t122.5 -39.5t104.5 -70.5t71 -110
t27 -152.5v-748h-254v153h-8q-40 -77 -122.5 -126.5t-205.5 -49.5zM604 1239q-106 0 -179.5 70t-73.5 171q0 102 74 174.5t179 72.5q106 0 179.5 -72.5t73.5 -174.5q0 -101 -73.5 -171t-179.5 -70zM525 171q116 0 187.5 67t71.5 163v131q-33 -27 -241 -54
q-206 -30 -206 -160q0 -71 51.5 -109t136.5 -38zM604 1362q52 0 87.5 35t35.5 83q0 49 -35.5 85.5t-87.5 35.5q-51 0 -86.5 -36.5t-35.5 -84.5t35.5 -83.5t86.5 -34.5z" />
    <glyph glyph-name="uni00E6" unicode="&#xe6;" horiz-adv-x="1878" 
d="M1308 -22q-141 0 -250 56t-162 156h-8q-41 -94 -158.5 -153.5t-261.5 -59.5q-174 0 -279.5 88t-105.5 248q0 73 24 129.5t62 92.5t96 61t114.5 37t127.5 20h1h1h1h1l1 1h1h1h1h1h1h1h1h1l1 1h1h1h1h1h1h1h1h1l2 1q163 17 203 32q49 19 49 65v5q0 82 -49 127t-140 45
t-149.5 -40t-79.5 -102l-246 35q43 151 168.5 230t308.5 79q48 0 92.5 -7.5t90.5 -24t85.5 -48.5t65.5 -77q127 157 351 157q105 0 195.5 -34t162 -101t112 -177.5t40.5 -252.5v-80h-777q2 -142 79.5 -223t205.5 -81q86 0 148 37t88 107l246 -27q-36 -147 -163.5 -234.5
t-309.5 -87.5zM525 171q116 0 187.5 67t71.5 163v131q-33 -27 -241 -54q-206 -30 -206 -160q0 -71 51.5 -109t136.5 -38zM1015 664h524q-1 115 -72 189t-183 74q-114 0 -188.5 -76.5t-80.5 -186.5z" />
    <glyph glyph-name="uni00E7" unicode="&#xe7;" horiz-adv-x="1182" 
d="M685 -19l-7 -37q73 -11 118 -55t45 -120q1 -105 -93 -167t-264 -62l-3 130q182 0 183 92q1 45 -34 67.5t-114 30.5l26 123q-212 26 -333.5 181t-121.5 390q0 258 145.5 418t388.5 160q204 0 335 -110t145 -292h-252q-16 85 -74 137t-150 52q-123 0 -197 -96.5t-74 -263.5
q0 -170 73.5 -268t197.5 -98q88 0 147.5 50t76.5 139h252q-13 -166 -124 -275t-292 -126z" />
    <glyph glyph-name="uni00E8" unicode="&#xe8;" horiz-adv-x="1213" 
d="M630 -22q-252 0 -397.5 155t-145.5 419q0 260 145 420t384 160q106 0 196.5 -34t161.5 -101t112 -177.5t41 -252.5v-80h-779q1 -142 78.5 -223t206.5 -81q86 0 148 37t89 107l246 -27q-36 -148 -165 -235t-321 -87zM349 664h525q-1 115 -71.5 189t-182.5 74
q-115 0 -190 -76t-81 -187zM709 1264h-197l-223 332h258z" />
    <glyph glyph-name="uni00E9" unicode="&#xe9;" horiz-adv-x="1213" 
d="M630 -22q-252 0 -397.5 155t-145.5 419q0 260 145 420t384 160q106 0 196.5 -34t161.5 -101t112 -177.5t41 -252.5v-80h-779q1 -142 78.5 -223t206.5 -81q86 0 148 37t89 107l246 -27q-36 -148 -165 -235t-321 -87zM349 664h525q-1 115 -71.5 189t-182.5 74
q-115 0 -190 -76t-81 -187zM508 1264l162 332h258l-223 -332h-197z" />
    <glyph glyph-name="uni00EA" unicode="&#xea;" horiz-adv-x="1213" 
d="M630 -22q-252 0 -397.5 155t-145.5 419q0 260 145 420t384 160q106 0 196.5 -34t161.5 -101t112 -177.5t41 -252.5v-80h-779q1 -142 78.5 -223t206.5 -81q86 0 148 37t89 107l246 -27q-36 -148 -165 -235t-321 -87zM461 1251h-230v10l275 314h206l275 -314v-10h-231
l-147 186zM349 664h525q-1 115 -71.5 189t-182.5 74q-115 0 -190 -76t-81 -187z" />
    <glyph glyph-name="uni00EB" unicode="&#xeb;" horiz-adv-x="1213" 
d="M630 -22q-252 0 -397.5 155t-145.5 419q0 260 145 420t384 160q106 0 196.5 -34t161.5 -101t112 -177.5t41 -252.5v-80h-779q1 -142 78.5 -223t206.5 -81q86 0 148 37t89 107l246 -27q-36 -148 -165 -235t-321 -87zM349 664h525q-1 115 -71.5 189t-182.5 74
q-115 0 -190 -76t-81 -187zM391 1281q-57 0 -99 41t-42 96q0 58 41.5 98t99.5 40q59 0 99.5 -40t40.5 -98q0 -56 -40.5 -96.5t-99.5 -40.5zM828 1281q-57 0 -99 41t-42 96q0 58 41.5 98t99.5 40q59 0 99 -39.5t40 -98.5q0 -56 -40.5 -96.5t-98.5 -40.5z" />
    <glyph glyph-name="uni00EC" unicode="&#xec;" horiz-adv-x="533" 
d="M135 0v1117h264v-1117h-264zM369 1264h-197l-224 332h259z" />
    <glyph glyph-name="uni00ED" unicode="&#xed;" horiz-adv-x="533" 
d="M135 0v1117h264v-1117h-264zM167 1264l162 332h258l-223 -332h-197z" />
    <glyph glyph-name="uni00EE" unicode="&#xee;" horiz-adv-x="533" 
d="M135 0v1117h264v-1117h-264zM120 1251h-231v10l276 314h206l275 -314v-10h-231l-147 186z" />
    <glyph glyph-name="uni00EF" unicode="&#xef;" horiz-adv-x="533" 
d="M135 0v1117h264v-1117h-264zM50 1281q-57 0 -99 41t-42 96q0 58 41.5 98t99.5 40q59 0 99.5 -40t40.5 -98q0 -56 -41 -96.5t-99 -40.5zM487 1281q-57 0 -99.5 41t-42.5 96q0 58 42 98t100 40q59 0 99 -39.5t40 -98.5q0 -56 -40.5 -96.5t-98.5 -40.5z" />
    <glyph glyph-name="uni00F0" unicode="&#xf0;" horiz-adv-x="1176" 
d="M941 1383l-165 -83q311 -332 311 -753q0 -267 -135.5 -418.5t-363.5 -151.5q-226 0 -362.5 149.5t-136.5 385.5q0 112 32.5 208.5t87.5 162.5t126 106.5t149 49.5q93 7 169.5 -25.5t120.5 -91.5h14q-83 167 -205 282l-256 -129l-73 140l193 97q-87 59 -166 100l117 171
q137 -70 255 -168l215 108zM596 189q122 0 188.5 84.5t66.5 234.5t-66 240.5t-189 90.5q-120 0 -186 -86.5t-66 -239.5q0 -151 64.5 -237.5t187.5 -86.5z" />
    <glyph glyph-name="uni00F1" unicode="&#xf1;" horiz-adv-x="1248" 
d="M399 655v-655h-264v1117h252v-190h13q39 96 125 150.5t208 54.5q176 0 280 -111.5t103 -309.5v-711h-264v671q0 112 -57.5 175t-159.5 63q-106 0 -171 -67.5t-65 -186.5zM411 1253l-159 4q0 127 66 201.5t166 74.5q32 0 62.5 -10t48 -19.5t45.5 -28.5q70 -45 111 -45
t65 30.5t25 80.5l157 -6q-1 -126 -66.5 -200t-165.5 -75q-36 0 -69 10t-49 20t-44 29q-22 16 -33 23t-31 14.5t-41 7.5q-39 0 -63.5 -31t-24.5 -80z" />
    <glyph glyph-name="uni00F2" unicode="&#xf2;" horiz-adv-x="1245" 
d="M623 -22q-244 0 -390 158t-146 418q0 261 146 419.5t390 158.5t389.5 -158.5t145.5 -419.5q0 -260 -145.5 -418t-389.5 -158zM624 189q128 0 197.5 103t69.5 263q0 161 -69.5 264.5t-197.5 103.5q-130 0 -200 -103.5t-70 -264.5t70 -263.5t200 -102.5zM724 1264h-197
l-224 332h258z" />
    <glyph glyph-name="uni00F3" unicode="&#xf3;" horiz-adv-x="1245" 
d="M623 -22q-244 0 -390 158t-146 418q0 261 146 419.5t390 158.5t389.5 -158.5t145.5 -419.5q0 -260 -145.5 -418t-389.5 -158zM624 189q128 0 197.5 103t69.5 263q0 161 -69.5 264.5t-197.5 103.5q-130 0 -200 -103.5t-70 -264.5t70 -263.5t200 -102.5zM521 1264l163 332
h258l-223 -332h-198z" />
    <glyph glyph-name="uni00F4" unicode="&#xf4;" horiz-adv-x="1245" 
d="M623 -22q-244 0 -390 158t-146 418q0 261 146 419.5t390 158.5t389.5 -158.5t145.5 -419.5q0 -260 -145.5 -418t-389.5 -158zM624 189q128 0 197.5 103t69.5 263q0 161 -69.5 264.5t-197.5 103.5q-130 0 -200 -103.5t-70 -264.5t70 -263.5t200 -102.5zM475 1251h-231v10
l276 314h206l275 -314v-10h-231l-147 186z" />
    <glyph glyph-name="uni00F5" unicode="&#xf5;" horiz-adv-x="1211" 
d="M625 -22q-244 0 -390 158t-146 418q0 261 146 419.5t390 158.5t389.5 -158.5t145.5 -419.5q0 -260 -145.5 -418t-389.5 -158zM626 189q128 0 197.5 103t69.5 263q0 161 -69.5 264.5t-197.5 103.5q-130 0 -200 -103.5t-70 -264.5t70 -263.5t200 -102.5zM438 1253l-159 4
q0 127 66 201.5t166 74.5q32 0 62.5 -10t48 -19.5t45.5 -28.5q26 -17 37 -23t32 -14t41 -8q41 0 65.5 31t25.5 80l157 -6q-1 -126 -66.5 -200t-165.5 -75q-36 0 -69 10t-49 20t-44 29q-22 16 -33 23t-31 14.5t-41 7.5q-39 0 -63.5 -31t-24.5 -80z" />
    <glyph glyph-name="uni00F6" unicode="&#xf6;" horiz-adv-x="1245" 
d="M623 -22q-244 0 -390 158t-146 418q0 261 146 419.5t390 158.5t389.5 -158.5t145.5 -419.5q0 -260 -145.5 -418t-389.5 -158zM624 189q128 0 197.5 103t69.5 263q0 161 -69.5 264.5t-197.5 103.5q-130 0 -200 -103.5t-70 -264.5t70 -263.5t200 -102.5zM405 1281
q-57 0 -99 41t-42 96q0 58 41.5 98t99.5 40q59 0 99.5 -40t40.5 -98q0 -56 -40.5 -96.5t-99.5 -40.5zM841 1281q-57 0 -99 41t-42 96q0 58 41.5 98t99.5 40q59 0 99.5 -40t40.5 -98q0 -56 -40.5 -96.5t-99.5 -40.5z" />
    <glyph glyph-name="uni00F7" unicode="&#xf7;" horiz-adv-x="1357" 
d="M1173 700v-219h-989v219h989zM679 827q-67 0 -114.5 47t-47.5 114q0 65 47.5 111.5t114.5 46.5q65 0 111 -46.5t46 -111.5q0 -67 -46 -114t-111 -47zM679 36q-67 0 -114.5 47t-47.5 114q0 65 47.5 112t114.5 47q65 0 111 -47t46 -112q0 -67 -46 -114t-111 -47z" />
    <glyph glyph-name="uni00F8" unicode="&#xf8;" horiz-adv-x="1247" 
d="M290 -68l-131 90l76 110q-148 157 -148 421q0 261 146 419t390 158q146 0 258 -59l72 106l134 -90l-78 -112q149 -158 149 -422q0 -260 -145.5 -418t-389.5 -158q-149 0 -261 59zM624 188q129 0 198 102.5t69 262.5q0 113 -35 200l-364 -529q58 -36 132 -36zM388 356
l365 530q-55 35 -129 35q-130 0 -200 -103.5t-70 -264.5q0 -113 34 -197z" />
    <glyph glyph-name="uni00F9" unicode="&#xf9;" horiz-adv-x="1245" 
d="M847 470v647h264v-1117h-256v199h-11q-40 -97 -127.5 -155.5t-208.5 -58.5q-168 0 -270.5 111.5t-102.5 309.5v711h264v-670q0 -106 57 -169t153 -63q95 0 166.5 67.5t71.5 187.5zM725 1264h-197l-223 332h258z" />
    <glyph glyph-name="uni00FA" unicode="&#xfa;" horiz-adv-x="1245" 
d="M847 470v647h264v-1117h-256v199h-11q-40 -97 -127.5 -155.5t-208.5 -58.5q-168 0 -270.5 111.5t-102.5 309.5v711h264v-670q0 -106 57 -169t153 -63q95 0 166.5 67.5t71.5 187.5zM524 1264l162 332h258l-223 -332h-197z" />
    <glyph glyph-name="uni00FB" unicode="&#xfb;" horiz-adv-x="1245" 
d="M847 470v647h264v-1117h-256v199h-11q-40 -97 -127.5 -155.5t-208.5 -58.5q-168 0 -270.5 111.5t-102.5 309.5v711h264v-670q0 -106 57 -169t153 -63q95 0 166.5 67.5t71.5 187.5zM476 1251h-230v10l275 314h206l275 -314v-10h-230l-148 186z" />
    <glyph glyph-name="uni00FC" unicode="&#xfc;" horiz-adv-x="1245" 
d="M847 470v647h264v-1117h-256v199h-11q-40 -97 -127.5 -155.5t-208.5 -58.5q-168 0 -270.5 111.5t-102.5 309.5v711h264v-670q0 -106 57 -169t153 -63q95 0 166.5 67.5t71.5 187.5zM407 1281q-57 0 -99.5 41t-42.5 96q0 58 42 98t100 40q59 0 99 -39.5t40 -98.5
q0 -56 -40.5 -96.5t-98.5 -40.5zM843 1281q-57 0 -99 41t-42 96q0 58 41.5 98t99.5 40q59 0 99.5 -40t40.5 -98q0 -56 -40.5 -96.5t-99.5 -40.5z" />
    <glyph glyph-name="uni00FD" unicode="&#xfd;" horiz-adv-x="1179" 
d="M289 -435q-90 0 -165 30l61 211q58 -16 102.5 -16.5t79 27.5t58.5 88l27 72l-405 1140h279l257 -844h12l258 844h280l-451 -1262q-49 -138 -147 -214t-246 -76zM488 1264l162 332h258l-223 -332h-197z" />
    <glyph glyph-name="uni00FE" unicode="&#xfe;" horiz-adv-x="1252" 
d="M135 1489h264v-517h13q88 160 291 160q96 0 179.5 -38t146.5 -109.5t98.5 -181.5t35.5 -246q1 -269 -128.5 -423t-331.5 -154q-113 0 -184.5 46.5t-106.5 112.5h-13v-558h-264v1908zM910 559q1 164 -68.5 260.5t-203.5 96.5q-131 0 -195.5 -97t-65.5 -260
q1 -164 65.5 -263.5t195.5 -99.5q132 0 202.5 99t69.5 264z" />
    <glyph glyph-name="uni00FF" unicode="&#xff;" horiz-adv-x="1179" 
d="M289 -435q-90 0 -165 30l61 211q58 -16 102.5 -16.5t79 27.5t58.5 88l27 72l-405 1140h279l257 -844h12l258 844h280l-451 -1262q-49 -138 -147 -214t-246 -76zM371 1281q-57 0 -99 41t-42 96q0 58 41.5 98t99.5 40q59 0 99.5 -40t40.5 -98q0 -56 -40.5 -96.5
t-99.5 -40.5zM807 1281q-57 0 -99 41t-42 96q0 58 41.5 98t99.5 40q59 0 99.5 -40t40.5 -98q0 -56 -40.5 -96.5t-99.5 -40.5z" />
    <glyph glyph-name="uni0100" unicode="&#x100;" horiz-adv-x="1482" 
d="M338 0h-288l525 1489h333l525 -1489h-288l-124 367h-560zM534 584h414l-201 600h-12zM1091 1862v-161h-700v161h700z" />
    <glyph glyph-name="uni0101" unicode="&#x101;" horiz-adv-x="1176" 
d="M457 -23q-166 0 -270 88t-104 248q0 73 24 129.5t62 92.5t95.5 61t114 37t128.5 20q13 1 37 4q154 16 192 31q47 19 47 65v5q0 83 -49 127.5t-140 44.5t-149.5 -40t-79.5 -102l-246 35q43 150 168.5 229.5t305.5 79.5q67 0 129 -11.5t122.5 -39.5t104.5 -70.5t71 -110
t27 -152.5v-748h-254v153h-8q-40 -77 -122.5 -126.5t-205.5 -49.5zM525 171q116 0 187.5 67t71.5 163v131q-33 -27 -241 -54q-206 -30 -206 -160q0 -71 51.5 -109t136.5 -38zM954 1489v-160h-699v160h699z" />
    <glyph glyph-name="uni0102" unicode="&#x102;" horiz-adv-x="1482" 
d="M338 0h-288l525 1489h333l525 -1489h-288l-124 367h-560zM534 584h414l-201 600h-12zM885 1873h197q0 -128 -92.5 -206.5t-248.5 -78.5q-155 0 -247.5 78.5t-91.5 206.5h196q0 -58 35 -96t108 -38t108 38t36 96z" />
    <glyph glyph-name="uni0103" unicode="&#x103;" horiz-adv-x="1176" 
d="M457 -23q-166 0 -270 88t-104 248q0 73 24 129.5t62 92.5t95.5 61t114 37t128.5 20q13 1 37 4q154 16 192 31q47 19 47 65v5q0 83 -49 127.5t-140 44.5t-149.5 -40t-79.5 -102l-246 35q43 150 168.5 229.5t305.5 79.5q67 0 129 -11.5t122.5 -39.5t104.5 -70.5t71 -110
t27 -152.5v-748h-254v153h-8q-40 -77 -122.5 -126.5t-205.5 -49.5zM748 1501h197q0 -128 -92.5 -206.5t-248.5 -78.5q-155 0 -247.5 78.5t-91.5 206.5h196q0 -58 35 -96t108 -38t108 38t36 96zM525 171q116 0 187.5 67t71.5 163v131q-33 -27 -241 -54q-206 -30 -206 -160
q0 -71 51.5 -109t136.5 -38z" />
    <glyph glyph-name="uni0104" unicode="&#x104;" horiz-adv-x="1482" 
d="M338 0h-288l525 1489h333l525 -1489h-1q-77 -43 -118 -84.5t-41 -94.5q0 -73 72 -73q33 0 83 21l27 -149q-75 -43 -163 -43q-95 0 -157.5 50.5t-73.5 141.5q-18 133 83 234l-123 364h-560zM534 584h414l-201 600h-12z" />
    <glyph glyph-name="uni0105" unicode="&#x105;" horiz-adv-x="1176" 
d="M457 -23q-166 0 -270 88t-104 248q0 73 24 129.5t62 92.5t95.5 61t114 37t128.5 20q13 1 37 4q154 16 192 31q47 19 47 65v5q0 83 -49 127.5t-140 44.5t-149.5 -40t-79.5 -102l-246 35q43 150 168.5 229.5t305.5 79.5q67 0 129 -11.5t122.5 -39.5t104.5 -70.5t71 -110
t27 -152.5v-748q-77 -43 -118.5 -85t-41.5 -94q0 -73 72 -73q34 0 84 21l26 -149q-75 -43 -163 -43q-95 0 -157 50t-73 142q-9 73 19.5 143t97.5 121v120h-8q-40 -77 -122.5 -126.5t-205.5 -49.5zM525 171q116 0 187.5 67t71.5 163v131q-33 -27 -241 -54q-206 -30 -206 -160
q0 -71 51.5 -109t136.5 -38z" />
    <glyph glyph-name="uni0106" unicode="&#x106;" horiz-adv-x="1522" 
d="M1422 987h-272q-23 131 -119.5 206t-234.5 75q-187 0 -301.5 -138t-114.5 -385q0 -250 114.5 -386.5t300.5 -136.5q136 0 233 72t122 201l272 -2q-15 -107 -66.5 -200t-131 -163t-191.5 -110t-242 -40q-197 0 -350.5 90t-242.5 265t-89 410q0 177 52 322t143 241.5
t216 149t271 52.5q252 0 424.5 -139.5t206.5 -383.5zM690 1636l162 333h259l-224 -333h-197z" />
    <glyph glyph-name="uni0107" unicode="&#x107;" horiz-adv-x="1182" 
d="M623 -22q-247 0 -391.5 159.5t-144.5 416.5q0 258 145.5 418t388.5 160q204 0 335 -110t145 -292h-252q-16 85 -74 137t-150 52q-123 0 -197 -96.5t-74 -263.5q0 -170 73.5 -268t197.5 -98q88 0 147.5 50t76.5 139h252q-15 -181 -143 -292.5t-335 -111.5zM519 1264
l162 332h259l-224 -332h-197z" />
    <glyph glyph-name="uni0108" unicode="&#x108;" horiz-adv-x="1522" 
d="M1422 987h-272q-23 131 -119.5 206t-234.5 75q-187 0 -301.5 -138t-114.5 -385q0 -250 114.5 -386.5t300.5 -136.5q136 0 233 72t122 201l272 -2q-15 -107 -66.5 -200t-131 -163t-191.5 -110t-242 -40q-197 0 -350.5 90t-242.5 265t-89 410q0 177 52 322t143 241.5
t216 149t271 52.5q252 0 424.5 -139.5t206.5 -383.5zM644 1623h-231v10l276 315h206l274 -315v-10h-230l-148 186z" />
    <glyph glyph-name="uni0109" unicode="&#x109;" horiz-adv-x="1182" 
d="M623 -22q-247 0 -391.5 159.5t-144.5 416.5q0 258 145.5 418t388.5 160q204 0 335 -110t145 -292h-252q-16 85 -74 137t-150 52q-123 0 -197 -96.5t-74 -263.5q0 -170 73.5 -268t197.5 -98q88 0 147.5 50t76.5 139h252q-15 -181 -143 -292.5t-335 -111.5zM473 1251h-231
v10l276 314h206l275 -314v-10h-231l-148 186z" />
    <glyph glyph-name="uni010A" unicode="&#x10a;" horiz-adv-x="1522" 
d="M1422 987h-272q-23 131 -119.5 206t-234.5 75q-187 0 -301.5 -138t-114.5 -385q0 -250 114.5 -386.5t300.5 -136.5q136 0 233 72t122 201l272 -2q-15 -107 -66.5 -200t-131 -163t-191.5 -110t-242 -40q-197 0 -350.5 90t-242.5 265t-89 410q0 177 52 322t143 241.5
t216 149t271 52.5q252 0 424.5 -139.5t206.5 -383.5zM791 1648q-63 0 -107.5 42t-44.5 101t44.5 101t107.5 42t107.5 -42t44.5 -101t-44.5 -101t-107.5 -42z" />
    <glyph glyph-name="uni010B" unicode="&#x10b;" horiz-adv-x="1182" 
d="M623 -22q-247 0 -391.5 159.5t-144.5 416.5q0 258 145.5 418t388.5 160q204 0 335 -110t145 -292h-252q-16 85 -74 137t-150 52q-123 0 -197 -96.5t-74 -263.5q0 -170 73.5 -268t197.5 -98q88 0 147.5 50t76.5 139h252q-15 -181 -143 -292.5t-335 -111.5zM620 1276
q-63 0 -107.5 41.5t-44.5 100.5t44.5 101t107.5 42t107.5 -42t44.5 -101t-44.5 -100.5t-107.5 -41.5z" />
    <glyph glyph-name="uni010C" unicode="&#x10c;" horiz-adv-x="1522" 
d="M1422 987h-272q-23 131 -119.5 206t-234.5 75q-187 0 -301.5 -138t-114.5 -385q0 -250 114.5 -386.5t300.5 -136.5q136 0 233 72t122 201l272 -2q-15 -107 -66.5 -200t-131 -163t-191.5 -110t-242 -40q-197 0 -350.5 90t-242.5 265t-89 410q0 177 52 322t143 241.5
t216 149t271 52.5q252 0 424.5 -139.5t206.5 -383.5zM644 1948l147 -187l148 187h230v-11l-274 -314h-206l-276 314v11h231z" />
    <glyph glyph-name="uni010D" unicode="&#x10d;" horiz-adv-x="1182" 
d="M623 -22q-247 0 -391.5 159.5t-144.5 416.5q0 258 145.5 418t388.5 160q204 0 335 -110t145 -292h-252q-16 85 -74 137t-150 52q-123 0 -197 -96.5t-74 -263.5q0 -170 73.5 -268t197.5 -98q88 0 147.5 50t76.5 139h252q-15 -181 -143 -292.5t-335 -111.5zM473 1575
l147 -186l148 186h231v-10l-275 -314h-206l-276 314v10h231z" />
    <glyph glyph-name="uni010E" unicode="&#x10e;" horiz-adv-x="1483" 
d="M652 0h-505v1489h515q333 0 523 -197.5t190 -545.5q0 -349 -191.5 -547.5t-531.5 -198.5zM417 233h222q468 0 468 513q0 510 -460 510h-230v-1023zM460 1948l147 -187l148 187h230v-11l-274 -314h-206l-276 314v11h231z" />
    <glyph glyph-name="uni010F" unicode="&#x10f;" horiz-adv-x="1461" 
d="M552 -20q-203 0 -331.5 154t-128.5 423q0 270 130 422.5t331 152.5q220 0 319 -200h11v557h264v-1489h-259v176h-16q-99 -196 -320 -196zM625 196q124 0 193.5 99t69.5 264t-69 261t-194 96q-128 0 -196.5 -98t-68.5 -259q0 -162 69 -262.5t196 -100.5zM1488 1489v-133
q-2 -253 -133 -407l-158 59q41 89 62.5 166t20.5 170v145h208z" />
    <glyph glyph-name="uni0110" unicode="&#x110;" horiz-adv-x="1483" 
d="M652 0h-505v697h-215v166h215v626h515q333 0 523 -197.5t190 -545.5q0 -349 -191.5 -547.5t-531.5 -198.5zM417 233h222q468 0 468 513q0 510 -460 510h-230v-393h212v-166h-212v-464z" />
    <glyph glyph-name="uni0111" unicode="&#x111;" horiz-adv-x="1290" 
d="M550 -20q-203 0 -332 154t-129 423q0 270 130.5 422.5t331.5 152.5q220 0 319 -200h11v269h-296v166h296v122h264v-122h137v-166h-137v-1201h-259v176h-16q-99 -196 -320 -196zM623 196q124 0 193.5 99t69.5 264t-69 261t-194 96q-128 0 -196.5 -98t-68.5 -259
q0 -162 69 -262.5t196 -100.5z" />
    <glyph glyph-name="uni0112" unicode="&#x112;" horiz-adv-x="1244" 
d="M147 0v1489h969v-226h-699v-404h648v-226h-648v-407h704v-226h-974zM982 1862v-161h-700v161h700z" />
    <glyph glyph-name="uni0113" unicode="&#x113;" horiz-adv-x="1213" 
d="M630 -22q-252 0 -397.5 155t-145.5 419q0 260 145 420t384 160q106 0 196.5 -34t161.5 -101t112 -177.5t41 -252.5v-80h-779q1 -142 78.5 -223t206.5 -81q86 0 148 37t89 107l246 -27q-36 -148 -165 -235t-321 -87zM959 1489v-160h-700v160h700zM349 664h525
q-1 115 -71.5 189t-182.5 74q-115 0 -190 -76t-81 -187z" />
    <glyph glyph-name="uni0114" unicode="&#x114;" horiz-adv-x="1244" 
d="M147 0v1489h969v-226h-699v-404h648v-226h-648v-407h704v-226h-974zM776 1873h197q0 -128 -92.5 -206.5t-248.5 -78.5q-155 0 -247.5 78.5t-91.5 206.5h196q0 -58 35 -96t108 -38t108 38t36 96z" />
    <glyph glyph-name="uni0115" unicode="&#x115;" horiz-adv-x="1213" 
d="M630 -22q-252 0 -397.5 155t-145.5 419q0 260 145 420t384 160q106 0 196.5 -34t161.5 -101t112 -177.5t41 -252.5v-80h-779q1 -142 78.5 -223t206.5 -81q86 0 148 37t89 107l246 -27q-36 -148 -165 -235t-321 -87zM753 1501h197q0 -128 -92.5 -206.5t-248.5 -78.5
q-155 0 -247.5 78.5t-91.5 206.5h195q0 -58 35.5 -96t108.5 -38t108 38t36 96zM349 664h525q-1 115 -71.5 189t-182.5 74q-115 0 -190 -76t-81 -187z" />
    <glyph glyph-name="uni0116" unicode="&#x116;" horiz-adv-x="1244" 
d="M147 0v1489h969v-226h-699v-404h648v-226h-648v-407h704v-226h-974zM632 1648q-63 0 -108 42t-45 101t45 101t108 42t107.5 -42t44.5 -101t-44.5 -101t-107.5 -42z" />
    <glyph glyph-name="uni0117" unicode="&#x117;" horiz-adv-x="1213" 
d="M630 -22q-252 0 -397.5 155t-145.5 419q0 260 145 420t384 160q106 0 196.5 -34t161.5 -101t112 -177.5t41 -252.5v-80h-779q1 -142 78.5 -223t206.5 -81q86 0 148 37t89 107l246 -27q-36 -148 -165 -235t-321 -87zM349 664h525q-1 115 -71.5 189t-182.5 74
q-115 0 -190 -76t-81 -187zM609 1276q-63 0 -108 41.5t-45 100.5t45 101t108 42t107.5 -42t44.5 -101t-44.5 -100.5t-107.5 -41.5z" />
    <glyph glyph-name="uni0118" unicode="&#x118;" horiz-adv-x="1244" 
d="M147 0v1489h969v-226h-699v-404h648v-226h-648v-407h704v-226q-77 -43 -118.5 -85t-41.5 -94q0 -73 72 -73q34 0 84 21l26 -149q-75 -43 -163 -43q-95 0 -157 50t-73 142q-18 131 80 231h-683z" />
    <glyph glyph-name="uni0119" unicode="&#x119;" horiz-adv-x="1213" 
d="M703 -404q-95 0 -157 50t-73 142q-15 109 51 198q-205 32 -321 182t-116 384q0 260 145 420t384 160q106 0 196.5 -34t161.5 -101t112 -177.5t41 -252.5v-80h-779q1 -142 78.5 -223t206.5 -81q86 0 148 37t89 107l246 -27q-26 -108 -104 -185.5t-197 -111.5
q-63 -39 -97 -77t-34 -85q0 -73 72 -73q36 0 84 20l26 -148q-77 -44 -163 -44zM349 664h525q-1 115 -71.5 189t-182.5 74q-115 0 -190 -76t-81 -187z" />
    <glyph glyph-name="uni011A" unicode="&#x11a;" horiz-adv-x="1244" 
d="M147 0v1489h969v-226h-699v-404h648v-226h-648v-407h704v-226h-974zM484 1948l148 -187l148 187h230v-11l-275 -314h-206l-275 314v11h230z" />
    <glyph glyph-name="uni011B" unicode="&#x11b;" horiz-adv-x="1213" 
d="M630 -22q-252 0 -397.5 155t-145.5 419q0 260 145 420t384 160q106 0 196.5 -34t161.5 -101t112 -177.5t41 -252.5v-80h-779q1 -142 78.5 -223t206.5 -81q86 0 148 37t89 107l246 -27q-36 -148 -165 -235t-321 -87zM461 1575l148 -186l147 186h231v-10l-275 -314h-206
l-275 314v10h230zM349 664h525q-1 115 -71.5 189t-182.5 74q-115 0 -190 -76t-81 -187z" />
    <glyph glyph-name="uni011C" unicode="&#x11c;" horiz-adv-x="1546" 
d="M1145 1014q-37 120 -127 187t-223 67q-185 0 -300 -138t-115 -384q0 -248 115 -386t306 -138q168 0 267.5 94t102.5 253h-343v211h604v-179q0 -189 -81.5 -330.5t-224.5 -216t-327 -74.5q-311 0 -500.5 206.5t-189.5 556.5q0 176 52 321.5t143 242.5t216 150t271 53
q246 0 420 -138t209 -358h-275zM639 1623h-231v10l276 315h205l275 -315v-10h-230l-148 186z" />
    <glyph glyph-name="uni011D" unicode="&#x11d;" horiz-adv-x="1280" 
d="M621 -438q-202 0 -328 78t-165 200l237 57q71 -136 260 -136q119 0 189 56.5t70 171.5v212h-13q-93 -185 -321 -185q-98 0 -181 34.5t-146 101t-98.5 172t-35.5 238.5q0 134 36 243t98.5 180t146.5 109t181 38q221 0 320 -200h15v185h259v-1135q0 -137 -69 -233
t-185 -141.5t-270 -45.5zM623 223q125 0 194 90t69 251q0 162 -69 257t-194 95q-127 0 -196 -97t-69 -255t68.5 -249.5t196.5 -91.5zM484 1251h-231v10l276 314h206l274 -314v-10h-230l-148 186z" />
    <glyph glyph-name="uni011E" unicode="&#x11e;" horiz-adv-x="1546" 
d="M1145 1014q-37 120 -127 187t-223 67q-185 0 -300 -138t-115 -384q0 -248 115 -386t306 -138q168 0 267.5 94t102.5 253h-343v211h604v-179q0 -189 -81.5 -330.5t-224.5 -216t-327 -74.5q-311 0 -500.5 206.5t-189.5 556.5q0 176 52 321.5t143 242.5t216 150t271 53
q246 0 420 -138t209 -358h-275zM930 1873h197q0 -128 -92.5 -206.5t-248.5 -78.5q-155 0 -247.5 78.5t-91.5 206.5h196q0 -58 35 -96t108 -38t108 38t36 96z" />
    <glyph glyph-name="uni011F" unicode="&#x11f;" horiz-adv-x="1280" 
d="M621 -438q-202 0 -328 78t-165 200l237 57q71 -136 260 -136q119 0 189 56.5t70 171.5v212h-13q-93 -185 -321 -185q-98 0 -181 34.5t-146 101t-98.5 172t-35.5 238.5q0 134 36 243t98.5 180t146.5 109t181 38q221 0 320 -200h15v185h259v-1135q0 -137 -69 -233
t-185 -141.5t-270 -45.5zM623 223q125 0 194 90t69 251q0 162 -69 257t-194 95q-127 0 -196 -97t-69 -255t68.5 -249.5t196.5 -91.5zM775 1501h197q0 -128 -92.5 -206.5t-248.5 -78.5q-155 0 -247.5 78.5t-91.5 206.5h196q0 -58 35 -96t108 -38t108 38t36 96z" />
    <glyph glyph-name="uni0120" unicode="&#x120;" horiz-adv-x="1546" 
d="M1145 1014q-37 120 -127 187t-223 67q-185 0 -300 -138t-115 -384q0 -248 115 -386t306 -138q168 0 267.5 94t102.5 253h-343v211h604v-179q0 -189 -81.5 -330.5t-224.5 -216t-327 -74.5q-311 0 -500.5 206.5t-189.5 556.5q0 176 52 321.5t143 242.5t216 150t271 53
q246 0 420 -138t209 -358h-275zM787 1648q-63 0 -108 42t-45 101t45 101t108 42t107.5 -42t44.5 -101t-44.5 -101t-107.5 -42z" />
    <glyph glyph-name="uni0121" unicode="&#x121;" horiz-adv-x="1280" 
d="M621 -438q-202 0 -328 78t-165 200l237 57q71 -136 260 -136q119 0 189 56.5t70 171.5v212h-13q-93 -185 -321 -185q-98 0 -181 34.5t-146 101t-98.5 172t-35.5 238.5q0 134 36 243t98.5 180t146.5 109t181 38q221 0 320 -200h15v185h259v-1135q0 -137 -69 -233
t-185 -141.5t-270 -45.5zM623 223q125 0 194 90t69 251q0 162 -69 257t-194 95q-127 0 -196 -97t-69 -255t68.5 -249.5t196.5 -91.5zM631 1276q-63 0 -107.5 41.5t-44.5 100.5t44.5 101t107.5 42t107.5 -42t44.5 -101t-44.5 -100.5t-107.5 -41.5z" />
    <glyph glyph-name="uni0122" unicode="&#x122;" horiz-adv-x="1546" 
d="M1145 1014q-37 120 -127 187t-223 67q-185 0 -300 -138t-115 -384q0 -248 115 -386t306 -138q168 0 267.5 94t102.5 253h-343v211h604v-179q0 -189 -81.5 -330.5t-224.5 -216t-327 -74.5q-311 0 -500.5 206.5t-189.5 556.5q0 176 52 321.5t143 242.5t216 150t271 53
q246 0 420 -138t209 -358h-275zM891 -86v-133q-2 -253 -133 -407l-158 59q41 89 62.5 166t20.5 170v145h208z" />
    <glyph glyph-name="uni0123" unicode="&#x123;" horiz-adv-x="1280" 
d="M621 -438q-202 0 -328 78t-165 200l237 57q71 -136 260 -136q119 0 189 56.5t70 171.5v212h-13q-93 -185 -321 -185q-98 0 -181 34.5t-146 101t-98.5 172t-35.5 238.5q0 134 36 243t98.5 180t146.5 109t181 38q221 0 320 -200h15v185h259v-1135q0 -137 -69 -233
t-185 -141.5t-270 -45.5zM623 223q125 0 194 90t69 251q0 162 -69 257t-194 95q-127 0 -196 -97t-69 -255t68.5 -249.5t196.5 -91.5zM516 1271v134q0 102 43.5 190t105.5 132l141 -82q-66 -110 -66 -251l-3 -123h-221z" />
    <glyph glyph-name="uni0124" unicode="&#x124;" horiz-adv-x="1523" 
d="M147 0v1489h270v-630h690v630h270v-1489h-270v633h-690v-633h-270zM618 1625h-230v10l275 314h206l275 -314v-10h-231l-147 186z" />
    <glyph glyph-name="uni0125" unicode="&#x125;" horiz-adv-x="1255" 
d="M399 655v-655h-264v1489h258v-562h13q84 205 332 205q177 0 281 -110.5t104 -310.5v-711h-263v671q0 113 -58 175.5t-162 62.5q-108 0 -174.5 -67.5t-66.5 -186.5zM118 1623h-231v10l276 315h206l275 -315v-10h-231l-148 186z" />
    <glyph glyph-name="uni0126" unicode="&#x126;" horiz-adv-x="1636" 
d="M1555 1212v-167h-121v-1045h-270v633h-691v-633h-269v1045h-123v167h123v277h269v-277h691v277h270v-277h121zM1164 1045h-691v-186h691v186z" />
    <glyph glyph-name="uni0127" unicode="&#x127;" horiz-adv-x="1255" 
d="M399 655v-655h-264v1211h-219v166h219v112h258v-112h219v-166h-219v-284h13q84 205 332 205q177 0 281 -110.5t104 -310.5v-711h-263v671q0 113 -58 175.5t-162 62.5q-108 0 -174.5 -67.5t-66.5 -186.5z" />
    <glyph glyph-name="uni0128" unicode="&#x128;" horiz-adv-x="917" 
d="M593 1489v-1489h-270v1489h270zM244 1625l-159 4q0 127 66 201.5t166 74.5q32 0 62.5 -10t48 -19.5t45.5 -28.5q70 -45 111 -45t65.5 31t25.5 80l156 -6q-1 -126 -66.5 -199.5t-165.5 -74.5q-36 0 -68.5 10t-48.5 19.5t-44 29.5q-61 44 -106 44q-39 0 -63.5 -31
t-24.5 -80z" />
    <glyph glyph-name="uni0129" unicode="&#x129;" horiz-adv-x="626" 
d="M193 0v1117h263v-1117h-263zM151 1253l-159 4q0 127 66 201.5t166 74.5q32 0 62.5 -10t48 -19.5t45.5 -28.5q70 -45 111 -45t65.5 31t25.5 80l156 -6q-1 -126 -66.5 -200t-165.5 -75q-36 0 -68.5 10t-48.5 19.5t-44 29.5q-22 16 -33 23t-31.5 14.5t-41.5 7.5
q-39 0 -63.5 -31t-24.5 -80z" />
    <glyph glyph-name="uni012A" unicode="&#x12a;" horiz-adv-x="562" 
d="M417 1489v-1489h-270v1489h270zM632 1862v-161h-700v161h700z" />
    <glyph glyph-name="uni012B" unicode="&#x12b;" horiz-adv-x="533" 
d="M135 0v1117h264v-1117h-264zM617 1489v-160h-699v160h699z" />
    <glyph glyph-name="uni012C" unicode="&#x12c;" horiz-adv-x="562" 
d="M417 1489v-1489h-270v1489h270zM426 1873h197q0 -128 -92.5 -206.5t-248.5 -78.5q-155 0 -247.5 78.5t-91.5 206.5h196q0 -58 35 -96t108 -38t108 38t36 96z" />
    <glyph glyph-name="uni012D" unicode="&#x12d;" horiz-adv-x="533" 
d="M135 0v1117h264v-1117h-264zM412 1501h197q0 -128 -92.5 -206.5t-248.5 -78.5q-155 0 -247.5 78.5t-91.5 206.5h195q0 -58 35.5 -96t108.5 -38t108 38t36 96z" />
    <glyph glyph-name="uni012E" unicode="&#x12e;" horiz-adv-x="560" 
d="M419 1489v-1489q-77 -43 -118 -84.5t-41 -94.5q0 -73 72 -73q33 0 83 21l26 -149q-75 -43 -162 -43q-95 0 -157.5 50.5t-73.5 141.5q-9 68 16 134.5t85 116.5v1469h270z" />
    <glyph glyph-name="uni012F" unicode="&#x12f;" horiz-adv-x="546" 
d="M253 -423q-95 0 -157 50t-73 142q-9 72 19 141t94 120v1087h263v-1117h-6q-77 -43 -118 -84.5t-41 -94.5q0 -73 72 -73q34 0 84 21l26 -149q-75 -43 -163 -43zM269 1276q-63 0 -108 41.5t-45 100.5t45 101t108 42t107.5 -42t44.5 -101t-44.5 -100.5t-107.5 -41.5z" />
    <glyph glyph-name="uni0130" unicode="&#x130;" horiz-adv-x="562" 
d="M417 1489v-1489h-270v1489h270zM282 1648q-63 0 -108 42t-45 101t45 101t108 42t107.5 -42t44.5 -101t-44.5 -101t-107.5 -42z" />
    <glyph glyph-name="uni0131" unicode="&#x131;" horiz-adv-x="533" 
d="M135 0v1117h264v-1117h-264z" />
    <glyph glyph-name="uni0132" unicode="&#x132;" horiz-adv-x="1712" 
d="M1297 1489h268v-1047q-1 -214 -132.5 -338t-348.5 -124q-204 0 -332.5 108.5t-128.5 307.5h268q1 -90 57 -142.5t147 -52.5q97 0 149 62t53 179v1047zM417 1489v-1489h-270v1489h270z" />
    <glyph glyph-name="uni0133" unicode="&#x133;" horiz-adv-x="1066" 
d="M669 1117h263v-1179q0 -179 -101 -268.5t-291 -86.5q-8 1 -24.5 1.5t-25.5 0.5v214q15 -1 38 -1q74 0 107.5 36t33.5 108v1175zM135 0v1117h264v-1117h-264zM268 1276q-63 0 -108 41.5t-45 100.5t45 101t108 42t107.5 -42t44.5 -101t-44.5 -100.5t-107.5 -41.5zM800 1276
q-63 0 -108 41.5t-45 100.5t45 101t108 42t107.5 -42t44.5 -101t-44.5 -100.5t-107.5 -41.5z" />
    <glyph glyph-name="uni0134" unicode="&#x134;" horiz-adv-x="1148" 
d="M735 1489h267v-1047q-1 -214 -132.5 -338t-348.5 -124q-204 0 -332.5 108.5t-128.5 307.5h268q1 -90 57 -142.5t147 -52.5q97 0 149.5 62t53.5 179v1047zM720 1623h-231v10l276 315h206l275 -315v-10h-231l-147 186z" />
    <glyph glyph-name="uni0135" unicode="&#x135;" horiz-adv-x="533" 
d="M135 1117h264v-1179q0 -179 -101 -268.5t-291 -86.5q-8 1 -25 1.5t-26 0.5v214q15 -1 38 -1q74 0 107.5 36t33.5 108v1175zM118 1251h-231v10l276 314h206l275 -314v-10h-231l-148 186z" />
    <glyph glyph-name="uni0136" unicode="&#x136;" horiz-adv-x="1386" 
d="M147 0v1489h270v-684h18l581 684h329l-576 -668l582 -821h-325l-444 639l-165 -195v-444h-270zM797 -87v-133q-2 -254 -133 -408l-158 59q41 89 62.5 166t20.5 170v146h208z" />
    <glyph glyph-name="uni0137" unicode="&#x137;" horiz-adv-x="1165" 
d="M135 0v1489h264v-821h18l401 449h308l-433 -482l458 -635h-315l-341 478l-96 -103v-375h-264zM704 -88v-133q-2 -253 -133 -407l-158 59q41 89 62.5 166t20.5 170v145h208z" />
    <glyph glyph-name="uni0138" unicode="&#x138;" horiz-adv-x="1346" 
d="M428 1082v-417h87l316 417h338l-406 -523l428 -559h-346l-300 412h-117v-412h-272v1082h272z" />
    <glyph glyph-name="uni0139" unicode="&#x139;" horiz-adv-x="1159" 
d="M147 0v1489h270v-1263h656v-226h-926zM179 1636l162 333h258l-223 -333h-197z" />
    <glyph glyph-name="uni013A" unicode="&#x13a;" horiz-adv-x="533" 
d="M399 1489v-1489h-264v1489h264zM165 1636l162 333h258l-223 -333h-197z" />
    <glyph glyph-name="uni013B" unicode="&#x13b;" horiz-adv-x="1159" 
d="M147 0v1489h270v-1263h656v-226h-926zM717 -88v-133q-2 -253 -133 -407l-158 59q41 89 62.5 166t20.5 170v145h208z" />
    <glyph glyph-name="uni013C" unicode="&#x13c;" horiz-adv-x="533" 
d="M399 1489v-1489h-264v1489h264zM375 -88v-133q-2 -252 -134 -407l-157 59q41 89 62.5 166t20.5 170v145h208z" />
    <glyph glyph-name="uni013D" unicode="&#x13d;" horiz-adv-x="1159" 
d="M147 0v1489h270v-1263h656v-226h-926zM862 1489v-133q-2 -253 -133 -407l-158 59q41 89 62.5 166t20.5 170v145h208z" />
    <glyph glyph-name="uni013E" unicode="&#x13e;" horiz-adv-x="698" 
d="M403 1489v-1489h-263v1489h263zM727 1489v-133q-2 -253 -133 -407l-158 59q41 89 62.5 166t20.5 170v145h208z" />
    <glyph glyph-name="uni013F" unicode="&#x13f;" horiz-adv-x="1175" 
d="M151 0v1489h269v-1263h656v-226h-925zM739 743q-63 0 -108 42t-45 101t45 101t108 42t107.5 -42t44.5 -101t-44.5 -101t-107.5 -42z" />
    <glyph glyph-name="uni0140" unicode="&#x140;" horiz-adv-x="777" 
d="M403 1489v-1489h-263v1489h263zM648 680q-63 0 -108 42t-45 101t45 101t108 42t107.5 -42t44.5 -101t-44.5 -101t-107.5 -42z" />
    <glyph glyph-name="uni0141" unicode="&#x141;" horiz-adv-x="1183" 
d="M681 952v-159l-222 -64v-503h656v-226h-926v651l-155 -44v157l155 45v680h270v-602z" />
    <glyph glyph-name="uni0142" unicode="&#x142;" horiz-adv-x="533" 
d="M545 956v-157l-146 -49v-750h-264v662l-146 -50v157l146 50v670h264v-582z" />
    <glyph glyph-name="uni0143" unicode="&#x143;" horiz-adv-x="1517" 
d="M1371 1489v-1489h-240l-702 1015h-12v-1015h-270v1489h241l701 -1015h14v1015h268zM658 1636l162 333h259l-224 -333h-197z" />
    <glyph glyph-name="uni0144" unicode="&#x144;" horiz-adv-x="1248" 
d="M399 655v-655h-264v1117h252v-190h13q39 96 125 150.5t208 54.5q176 0 280 -111.5t103 -309.5v-711h-264v671q0 112 -57.5 175t-159.5 63q-106 0 -171 -67.5t-65 -186.5zM524 1264l163 332h258l-224 -332h-197z" />
    <glyph glyph-name="uni0145" unicode="&#x145;" horiz-adv-x="1517" 
d="M1371 1489v-1489h-240l-702 1015h-12v-1015h-270v1489h241l701 -1015h14v1015h268zM866 -88v-133q-2 -253 -133 -407l-158 59q41 89 62.5 166t20.5 170v145h208z" />
    <glyph glyph-name="uni0146" unicode="&#x146;" horiz-adv-x="1248" 
d="M399 655v-655h-264v1117h252v-190h13q39 96 125 150.5t208 54.5q176 0 280 -111.5t103 -309.5v-711h-264v671q0 112 -57.5 175t-159.5 63q-106 0 -171 -67.5t-65 -186.5zM732 -88v-133q-2 -253 -133 -407l-158 59q41 89 62.5 166t20.5 170v145h208z" />
    <glyph glyph-name="uni0147" unicode="&#x147;" horiz-adv-x="1517" 
d="M1371 1489v-1489h-240l-702 1015h-12v-1015h-270v1489h241l701 -1015h14v1015h268zM612 1948l147 -187l148 187h230v-11l-274 -314h-206l-276 314v11h231z" />
    <glyph glyph-name="uni0148" unicode="&#x148;" horiz-adv-x="1248" 
d="M399 655v-655h-264v1117h252v-190h13q39 96 125 150.5t208 54.5q176 0 280 -111.5t103 -309.5v-711h-264v671q0 112 -57.5 175t-159.5 63q-106 0 -171 -67.5t-65 -186.5zM477 1575l148 -186l147 186h231v-10l-275 -314h-206l-275 314v10h230z" />
    <glyph glyph-name="uni014A" unicode="&#x14a;" horiz-adv-x="1517" 
d="M1131 0l-702 1015h-12v-1015h-270v1489h241l701 -1015h14v1015h268v-1569q0 -181 -104.5 -267.5t-286.5 -86.5q-64 0 -109 14v205q50 -10 90 -10q79 0 124.5 35t45.5 109v81z" />
    <glyph glyph-name="uni014B" unicode="&#x14b;" horiz-adv-x="1261" 
d="M399 655v-655h-264v1117h252v-190h13q39 96 125 150.5t208 54.5q176 0 280 -111.5t103 -309.5v-792q0 -167 -99.5 -257t-263.5 -90q-85 0 -138 11l15 216q41 -9 79 -9q143 0 143 129v752q0 112 -57.5 175t-159.5 63q-106 0 -171 -67.5t-65 -186.5z" />
    <glyph glyph-name="uni014C" unicode="&#x14c;" horiz-adv-x="1586" 
d="M1478 745q0 -177 -52 -322t-144 -241.5t-217 -149t-272 -52.5t-272 52.5t-216.5 149t-143.5 241.5t-52 322t52 322t143.5 241.5t216.5 149t272 52.5t272 -52.5t217 -149t144 -241.5t52 -322zM1207 745q0 249 -113.5 386t-300.5 137q-186 0 -299.5 -137.5t-113.5 -385.5
t113.5 -385.5t299.5 -137.5q187 0 300.5 137t113.5 386zM1143 1862v-161h-699v161h699z" />
    <glyph glyph-name="uni014D" unicode="&#x14d;" horiz-adv-x="1245" 
d="M623 -22q-244 0 -390 158t-146 418q0 261 146 419.5t390 158.5t389.5 -158.5t145.5 -419.5q0 -260 -145.5 -418t-389.5 -158zM624 189q128 0 197.5 103t69.5 263q0 161 -69.5 264.5t-197.5 103.5q-130 0 -200 -103.5t-70 -264.5t70 -263.5t200 -102.5zM972 1489v-160
h-699v160h699z" />
    <glyph glyph-name="uni014E" unicode="&#x14e;" horiz-adv-x="1586" 
d="M1478 745q0 -177 -52 -322t-144 -241.5t-217 -149t-272 -52.5t-272 52.5t-216.5 149t-143.5 241.5t-52 322t52 322t143.5 241.5t216.5 149t272 52.5t272 -52.5t217 -149t144 -241.5t52 -322zM1207 745q0 249 -113.5 386t-300.5 137q-186 0 -299.5 -137.5t-113.5 -385.5
t113.5 -385.5t299.5 -137.5q187 0 300.5 137t113.5 386zM937 1873h198q0 -128 -93 -206.5t-249 -78.5q-155 0 -247 78.5t-91 206.5h195q0 -58 35 -96t108 -38t108 38t36 96z" />
    <glyph glyph-name="uni014F" unicode="&#x14f;" horiz-adv-x="1245" 
d="M623 -22q-244 0 -390 158t-146 418q0 261 146 419.5t390 158.5t389.5 -158.5t145.5 -419.5q0 -260 -145.5 -418t-389.5 -158zM624 189q128 0 197.5 103t69.5 263q0 161 -69.5 264.5t-197.5 103.5q-130 0 -200 -103.5t-70 -264.5t70 -263.5t200 -102.5zM767 1501h197
q0 -128 -92.5 -206.5t-248.5 -78.5q-155 0 -247.5 78.5t-91.5 206.5h195q0 -58 35.5 -96t108.5 -38t108 38t36 96z" />
    <glyph glyph-name="uni0150" unicode="&#x150;" horiz-adv-x="1586" 
d="M1478 745q0 -177 -52 -322t-144 -241.5t-217 -149t-272 -52.5t-272 52.5t-216.5 149t-143.5 241.5t-52 322t52 322t143.5 241.5t216.5 149t272 52.5t272 -52.5t217 -149t144 -241.5t52 -322zM1207 745q0 249 -113.5 386t-300.5 137q-186 0 -299.5 -137.5t-113.5 -385.5
t113.5 -385.5t299.5 -137.5q187 0 300.5 137t113.5 386zM844 1616l229 304h238l-270 -304h-197zM495 1616l184 304h237l-230 -304h-191z" />
    <glyph glyph-name="uni0151" unicode="&#x151;" horiz-adv-x="1245" 
d="M623 -22q-244 0 -390 158t-146 418q0 261 146 419.5t390 158.5t389.5 -158.5t145.5 -419.5q0 -260 -145.5 -418t-389.5 -158zM624 189q128 0 197.5 103t69.5 263q0 161 -69.5 264.5t-197.5 103.5q-130 0 -200 -103.5t-70 -264.5t70 -263.5t200 -102.5zM673 1244l229 304
h238l-270 -304h-197zM324 1244l184 304h237l-230 -304h-191z" />
    <glyph glyph-name="uni0152" unicode="&#x152;" horiz-adv-x="2040" 
d="M780 0q-146 0 -269.5 50.5t-212.5 144.5t-139 234.5t-50 313.5q0 174 50 315.5t139 235.5t212.5 144.5t269.5 50.5h1131v-226h-699v-404h649v-226h-649v-407h705v-226h-1137zM943 226v1037h-163q-183 0 -292.5 -135t-109.5 -385q0 -249 109.5 -383t292.5 -134h163z" />
    <glyph glyph-name="uni0153" unicode="&#x153;" horiz-adv-x="2008" 
d="M625 -22q-244 0 -390 158t-146 418q0 261 146 419.5t390 158.5q260 0 407 -179q70 86 172.5 132.5t227.5 46.5q106 0 196.5 -34t161.5 -101t112 -177.5t41 -252.5v-80h-779q1 -142 78.5 -223t206.5 -81q86 0 148 37t89 107l246 -27q-36 -148 -165 -235t-321 -87
q-269 0 -415 176q-148 -176 -406 -176zM626 189q128 0 197.5 103t69.5 263q0 161 -69.5 264.5t-197.5 103.5q-130 0 -200 -103.5t-70 -264.5t70 -263.5t200 -102.5zM1165 664h525q-1 115 -71.5 189t-182.5 74q-115 0 -190 -76t-81 -187z" />
    <glyph glyph-name="uni0154" unicode="&#x154;" horiz-adv-x="1332" 
d="M147 0v1489h558q251 0 388.5 -129t137.5 -347q0 -152 -68.5 -260.5t-199.5 -161.5l322 -591h-301l-292 545h-275v-545h-270zM417 769h248q291 0 291 244q0 251 -292 251h-247v-495zM556 1636l163 333h258l-224 -333h-197z" />
    <glyph glyph-name="uni0155" unicode="&#x155;" horiz-adv-x="847" 
d="M135 0v1117h256v-186h11q30 96 104 149t172 53q86 0 150 -41l-82 -218q-50 23 -104 23q-104 0 -173.5 -67.5t-69.5 -172.5v-657h-264zM347 1264l162 332h258l-223 -332h-197z" />
    <glyph glyph-name="uni0156" unicode="&#x156;" horiz-adv-x="1332" 
d="M147 0v1489h558q251 0 388.5 -129t137.5 -347q0 -152 -68.5 -260.5t-199.5 -161.5l322 -591h-301l-292 545h-275v-545h-270zM417 769h248q291 0 291 244q0 251 -292 251h-247v-495zM790 -88v-133q-2 -253 -133 -407l-158 59q41 89 62.5 166t20.5 170v145h208z" />
    <glyph glyph-name="uni0157" unicode="&#x157;" horiz-adv-x="847" 
d="M135 0v1117h256v-186h11q30 96 104 149t172 53q86 0 150 -41l-82 -218q-50 23 -104 23q-104 0 -173.5 -67.5t-69.5 -172.5v-657h-264zM375 -88v-133q-2 -252 -134 -407l-157 59q41 89 62.5 166t20.5 170v145h208z" />
    <glyph glyph-name="uni0158" unicode="&#x158;" horiz-adv-x="1332" 
d="M147 0v1489h558q251 0 388.5 -129t137.5 -347q0 -152 -68.5 -260.5t-199.5 -161.5l322 -591h-301l-292 545h-275v-545h-270zM417 769h248q291 0 291 244q0 251 -292 251h-247v-495zM510 1948l147 -187l148 187h231v-11l-275 -314h-206l-276 314v11h231z" />
    <glyph glyph-name="uni0159" unicode="&#x159;" horiz-adv-x="847" 
d="M135 0v1117h256v-186h11q30 96 104 149t172 53q86 0 150 -41l-82 -218q-50 23 -104 23q-104 0 -173.5 -67.5t-69.5 -172.5v-657h-264zM300 1575l147 -186l148 186h230v-10l-274 -314h-206l-276 314v10h231z" />
    <glyph glyph-name="uni015A" unicode="&#x15a;" horiz-adv-x="1329" 
d="M956 1080q-10 95 -84.5 148t-195.5 53q-124 0 -196.5 -54t-73.5 -140q0 -44 21 -79.5t60.5 -59t79.5 -39t92 -27.5l140 -35q90 -21 163.5 -54t137.5 -83t100 -124.5t36 -167.5q-1 -200 -151 -320.5t-414 -120.5q-262 0 -416 121.5t-162 341.5h266q8 -113 93 -172.5
t217 -59.5t214.5 58.5t83.5 153.5q-1 81 -67.5 127t-200.5 80l-170 44q-397 102 -397 400q0 129 71 229.5t195.5 155t280.5 54.5q236 0 384.5 -120t152.5 -310h-260zM564 1636l162 333h258l-223 -333h-197z" />
    <glyph glyph-name="uni015B" unicode="&#x15b;" horiz-adv-x="1124" 
d="M1018 822l-240 -26q-16 60 -68.5 99.5t-137.5 39.5q-83 0 -138 -36t-54 -92q-1 -49 36 -79.5t121 -49.5l191 -41q159 -35 236 -109t78 -193q-1 -159 -134 -258t-343 -99q-204 0 -329 86t-150 241l257 24q35 -152 221 -152q93 0 150.5 38t57.5 96q0 94 -150 127l-191 40
q-316 65 -314 315q-1 154 124 246.5t328 92.5q192 0 306.5 -82.5t142.5 -227.5zM473 1264l162 332h258l-223 -332h-197z" />
    <glyph glyph-name="uni015C" unicode="&#x15c;" horiz-adv-x="1329" 
d="M956 1080q-10 95 -84.5 148t-195.5 53q-124 0 -196.5 -54t-73.5 -140q0 -44 21 -79.5t60.5 -59t79.5 -39t92 -27.5l140 -35q90 -21 163.5 -54t137.5 -83t100 -124.5t36 -167.5q-1 -200 -151 -320.5t-414 -120.5q-262 0 -416 121.5t-162 341.5h266q8 -113 93 -172.5
t217 -59.5t214.5 58.5t83.5 153.5q-1 81 -67.5 127t-200.5 80l-170 44q-397 102 -397 400q0 129 71 229.5t195.5 155t280.5 54.5q236 0 384.5 -120t152.5 -310h-260zM516 1623h-230v10l275 315h206l275 -315v-10h-230l-148 186z" />
    <glyph glyph-name="uni015D" unicode="&#x15d;" horiz-adv-x="1124" 
d="M1018 822l-240 -26q-16 60 -68.5 99.5t-137.5 39.5q-83 0 -138 -36t-54 -92q-1 -49 36 -79.5t121 -49.5l191 -41q159 -35 236 -109t78 -193q-1 -159 -134 -258t-343 -99q-204 0 -329 86t-150 241l257 24q35 -152 221 -152q93 0 150.5 38t57.5 96q0 94 -150 127l-191 40
q-316 65 -314 315q-1 154 124 246.5t328 92.5q192 0 306.5 -82.5t142.5 -227.5zM426 1251h-230v10l275 314h206l275 -314v-10h-231l-147 186z" />
    <glyph glyph-name="uni015E" unicode="&#x15e;" horiz-adv-x="1329" 
d="M956 1080q-10 95 -84.5 148t-195.5 53q-124 0 -196.5 -54t-73.5 -140q0 -44 21 -79.5t60.5 -59t79.5 -39t92 -27.5l140 -35q90 -21 163.5 -54t137.5 -83t100 -124.5t36 -167.5q-1 -188 -134 -306t-370 -133l-7 -35q73 -11 118.5 -55t45.5 -120q1 -104 -93.5 -166.5
t-264.5 -62.5l-3 130q182 0 183 92q1 45 -34 67.5t-114 30.5l26 121q-227 19 -358 138t-138 321h266q8 -113 93 -172.5t217 -59.5t214.5 58.5t83.5 153.5q-1 81 -67.5 127t-200.5 80l-170 44q-397 102 -397 400q0 129 71 229.5t195.5 155t280.5 54.5q236 0 384.5 -120
t152.5 -310h-260z" />
    <glyph glyph-name="uni015F" unicode="&#x15f;" horiz-adv-x="1124" 
d="M1018 822l-240 -26q-16 60 -68.5 99.5t-137.5 39.5q-83 0 -138 -36t-54 -92q-1 -49 36 -79.5t121 -49.5l191 -41q159 -35 236 -109t78 -193q-1 -144 -112 -240t-293 -113l-7 -38q73 -11 118 -55t45 -120q1 -105 -93 -167t-264 -62l-3 130q182 0 183 92q1 45 -34 67.5
t-114 30.5l26 121q-174 15 -279.5 99t-128.5 225l257 24q35 -152 221 -152q93 0 150.5 38t57.5 96q0 94 -150 127l-191 40q-316 65 -314 315q-1 154 124 246.5t328 92.5q192 0 306.5 -82.5t142.5 -227.5z" />
    <glyph glyph-name="uni0160" unicode="&#x160;" horiz-adv-x="1329" 
d="M956 1080q-10 95 -84.5 148t-195.5 53q-124 0 -196.5 -54t-73.5 -140q0 -44 21 -79.5t60.5 -59t79.5 -39t92 -27.5l140 -35q90 -21 163.5 -54t137.5 -83t100 -124.5t36 -167.5q-1 -200 -151 -320.5t-414 -120.5q-262 0 -416 121.5t-162 341.5h266q8 -113 93 -172.5
t217 -59.5t214.5 58.5t83.5 153.5q-1 81 -67.5 127t-200.5 80l-170 44q-397 102 -397 400q0 129 71 229.5t195.5 155t280.5 54.5q236 0 384.5 -120t152.5 -310h-260zM516 1948l148 -187l148 187h230v-11l-275 -314h-206l-275 314v11h230z" />
    <glyph glyph-name="uni0161" unicode="&#x161;" horiz-adv-x="1124" 
d="M1018 822l-240 -26q-16 60 -68.5 99.5t-137.5 39.5q-83 0 -138 -36t-54 -92q-1 -49 36 -79.5t121 -49.5l191 -41q159 -35 236 -109t78 -193q-1 -159 -134 -258t-343 -99q-204 0 -329 86t-150 241l257 24q35 -152 221 -152q93 0 150.5 38t57.5 96q0 94 -150 127l-191 40
q-316 65 -314 315q-1 154 124 246.5t328 92.5q192 0 306.5 -82.5t142.5 -227.5zM426 1575l148 -186l147 186h231v-10l-275 -314h-206l-275 314v10h230z" />
    <glyph glyph-name="uni0162" unicode="&#x162;" horiz-adv-x="1351" 
d="M81 1263v226h1189v-226h-461v-1263h-55l-10 -56q73 -11 118.5 -55t45.5 -120q1 -104 -93.5 -166.5t-264.5 -62.5l-3 130q182 0 183 92q1 45 -34 67.5t-114 30.5l30 140h-70v1263h-461z" />
    <glyph glyph-name="uni0163" unicode="&#x163;" horiz-adv-x="778" 
d="M693 1117v-204h-220v-577q0 -74 31.5 -101.5t87.5 -27.5q40 0 77 10l44 -206q-52 -18 -119 -24l-8 -43q73 -11 118.5 -55t45.5 -120q1 -104 -93.5 -166.5t-264.5 -62.5l-3 130q182 0 183 92q1 45 -34 67.5t-114 30.5l28 133q-112 23 -178 99t-65 200v621h-158v204h158
v268h264v-268h220z" />
    <glyph glyph-name="uni0164" unicode="&#x164;" horiz-adv-x="1351" 
d="M81 1263v226h1189v-226h-461v-1263h-267v1263h-461zM528 1948l148 -187l147 187h231v-11l-275 -314h-206l-276 314v11h231z" />
    <glyph glyph-name="uni0165" unicode="&#x165;" horiz-adv-x="880" 
d="M693 1117v-204h-220v-577q0 -74 31.5 -101.5t87.5 -27.5q40 0 77 10l44 -206q-74 -24 -154 -26q-155 -5 -253 75t-97 232v621h-158v204h158v268h264v-268h220zM815 1713v-133q-2 -253 -134 -408l-157 59q41 89 62.5 166t20.5 170v146h208z" />
    <glyph glyph-name="uni0166" unicode="&#x166;" horiz-adv-x="1351" 
d="M81 1263v226h1189v-226h-461v-448h214v-167h-214v-648h-267v648h-216v167h216v448h-461z" />
    <glyph glyph-name="uni0167" unicode="&#x167;" horiz-adv-x="778" 
d="M51 577v143h158v193h-158v204h158v268h264v-268h220v-204h-220v-193h220v-143h-220v-241q0 -74 31.5 -101.5t87.5 -27.5q40 0 77 10l44 -206q-74 -24 -154 -26q-155 -5 -253 75t-97 232v285h-158z" />
    <glyph glyph-name="uni0168" unicode="&#x168;" horiz-adv-x="1502" 
d="M1087 1489h269v-984q0 -164 -80 -285.5t-216 -182t-309 -60.5q-174 0 -309.5 61t-215 182t-79.5 285v984h270v-978q0 -134 94.5 -212.5t239.5 -78.5t240.5 78.5t95.5 212.5v978zM537 1625l-159 4q0 127 66 201.5t166 74.5q32 0 63 -9.5t49 -20t45 -28.5q26 -17 37 -23
t32 -14t41 -8q41 0 65.5 31t25.5 80l156 -6q-1 -126 -66.5 -199.5t-165.5 -74.5q-36 0 -68.5 10t-48.5 19.5t-44 29.5q-61 44 -106 44q-39 0 -63.5 -31t-24.5 -80z" />
    <glyph glyph-name="uni0169" unicode="&#x169;" horiz-adv-x="1245" 
d="M847 470v647h264v-1117h-256v199h-11q-40 -97 -127.5 -155.5t-208.5 -58.5q-168 0 -270.5 111.5t-102.5 309.5v711h264v-670q0 -106 57 -169t153 -63q95 0 166.5 67.5t71.5 187.5zM410 1253l-159 4q0 127 66 201.5t166 74.5q32 0 62.5 -10t48 -19.5t45.5 -28.5
q70 -45 111 -45t65.5 31t25.5 80l156 -6q-1 -126 -66.5 -200t-165.5 -75q-36 0 -68.5 10t-48.5 19.5t-44 29.5q-22 16 -33 23t-31.5 14.5t-41.5 7.5q-39 0 -63.5 -31t-24.5 -80z" />
    <glyph glyph-name="uni016A" unicode="&#x16a;" horiz-adv-x="1502" 
d="M1087 1489h269v-984q0 -164 -80 -285.5t-216 -182t-309 -60.5q-174 0 -309.5 61t-215 182t-79.5 285v984h270v-978q0 -134 94.5 -212.5t239.5 -78.5t240.5 78.5t95.5 212.5v978zM1101 1862v-161h-700v161h700z" />
    <glyph glyph-name="uni016B" unicode="&#x16b;" horiz-adv-x="1245" 
d="M847 470v647h264v-1117h-256v199h-11q-40 -97 -127.5 -155.5t-208.5 -58.5q-168 0 -270.5 111.5t-102.5 309.5v711h264v-670q0 -106 57 -169t153 -63q95 0 166.5 67.5t71.5 187.5zM975 1489v-160h-700v160h700z" />
    <glyph glyph-name="uni016C" unicode="&#x16c;" horiz-adv-x="1502" 
d="M1087 1489h269v-984q0 -164 -80 -285.5t-216 -182t-309 -60.5q-174 0 -309.5 61t-215 182t-79.5 285v984h270v-978q0 -134 94.5 -212.5t239.5 -78.5t240.5 78.5t95.5 212.5v978zM895 1873h197q0 -128 -92.5 -206.5t-248.5 -78.5q-155 0 -247.5 78.5t-91.5 206.5h196
q0 -58 35 -96t108 -38t108 38t36 96z" />
    <glyph glyph-name="uni016D" unicode="&#x16d;" horiz-adv-x="1245" 
d="M847 470v647h264v-1117h-256v199h-11q-40 -97 -127.5 -155.5t-208.5 -58.5q-168 0 -270.5 111.5t-102.5 309.5v711h264v-670q0 -106 57 -169t153 -63q95 0 166.5 67.5t71.5 187.5zM768 1501h197q0 -128 -92.5 -206.5t-248.5 -78.5q-155 0 -247.5 78.5t-91.5 206.5h196
q0 -58 35 -96t108 -38t108 38t36 96z" />
    <glyph glyph-name="uni016E" unicode="&#x16e;" horiz-adv-x="1502" 
d="M1087 1489h269v-984q0 -164 -80 -285.5t-216 -182t-309 -60.5q-174 0 -309.5 61t-215 182t-79.5 285v984h270v-978q0 -134 94.5 -212.5t239.5 -78.5t240.5 78.5t95.5 212.5v978zM751 1575q-98 0 -168 66.5t-70 159.5t70 159.5t168 66.5q99 0 168.5 -66.5t69.5 -159.5
t-69.5 -159.5t-168.5 -66.5zM751 1697q45 0 77 30.5t32 73.5t-32 74t-77 31q-45 -1 -76.5 -31.5t-31.5 -73.5q0 -44 31.5 -74.5t76.5 -29.5z" />
    <glyph glyph-name="uni016F" unicode="&#x16f;" horiz-adv-x="1245" 
d="M847 470v647h264v-1117h-256v199h-11q-40 -97 -127.5 -155.5t-208.5 -58.5q-168 0 -270.5 111.5t-102.5 309.5v711h264v-670q0 -106 57 -169t153 -63q95 0 166.5 67.5t71.5 187.5zM624 1239q-106 0 -180 70t-74 171q0 102 74.5 174.5t179.5 72.5q106 0 179 -72.5
t73 -174.5q0 -101 -73 -171t-179 -70zM624 1362q52 0 87 35t35 83q0 49 -35 85.5t-87 35.5q-51 0 -86.5 -36.5t-35.5 -84.5t35.5 -83.5t86.5 -34.5z" />
    <glyph glyph-name="uni0170" unicode="&#x170;" horiz-adv-x="1502" 
d="M1087 1489h269v-984q0 -164 -80 -285.5t-216 -182t-309 -60.5q-174 0 -309.5 61t-215 182t-79.5 285v984h270v-978q0 -134 94.5 -212.5t239.5 -78.5t240.5 78.5t95.5 212.5v978zM801 1616l230 304h238l-270 -304h-198zM453 1616l184 304h237l-230 -304h-191z" />
    <glyph glyph-name="uni0171" unicode="&#x171;" horiz-adv-x="1245" 
d="M847 470v647h264v-1117h-256v199h-11q-40 -97 -127.5 -155.5t-208.5 -58.5q-168 0 -270.5 111.5t-102.5 309.5v711h264v-670q0 -106 57 -169t153 -63q95 0 166.5 67.5t71.5 187.5zM675 1244l229 304h239l-271 -304h-197zM327 1244l184 304h237l-231 -304h-190z" />
    <glyph glyph-name="uni0172" unicode="&#x172;" horiz-adv-x="1502" 
d="M1087 1489h269v-984q0 -207 -122 -341t-326 -173q-69 -40 -105.5 -79.5t-36.5 -88.5q0 -73 72 -73q36 0 83 20l27 -148q-77 -44 -163 -44q-95 0 -157.5 50.5t-73.5 141.5q-16 120 66 217q-215 33 -344 168.5t-129 349.5v984h270v-978q0 -134 94.5 -212.5t239.5 -78.5
t240.5 78.5t95.5 212.5v978z" />
    <glyph glyph-name="uni0173" unicode="&#x173;" horiz-adv-x="1245" 
d="M847 470v647h264v-1117q-77 -43 -118.5 -85t-41.5 -94q0 -73 72 -73q34 0 84 21l26 -149q-75 -43 -163 -43q-95 0 -157 50t-73 142q-9 72 19.5 142t95.5 121v167h-11q-40 -97 -127.5 -155.5t-208.5 -58.5q-168 0 -270.5 111.5t-102.5 309.5v711h264v-670q0 -106 57 -169
t153 -63q95 0 166.5 67.5t71.5 187.5z" />
    <glyph glyph-name="uni0174" unicode="&#x174;" horiz-adv-x="2061" 
d="M460 0l-420 1489h290l269 -1094h13l287 1094h264l287 -1095h13l269 1095h290l-421 -1489h-266l-298 1045h-12l-298 -1045h-267zM883 1623h-231v10l276 315h206l275 -315v-10h-231l-147 186z" />
    <glyph glyph-name="uni0175" unicode="&#x175;" horiz-adv-x="1714" 
d="M366 0l-316 1117h269l196 -785h10l201 785h265l201 -781h11l193 781h269l-316 -1117h-274l-210 755h-15l-209 -755h-275zM710 1251h-231v10l276 314h206l275 -314v-10h-231l-148 186z" />
    <glyph glyph-name="uni0176" unicode="&#x176;" horiz-adv-x="1442" 
d="M45 1489h305l364 -658h15l364 658h305l-542 -933v-556h-269v556zM574 1623h-231v10l276 315h206l275 -315v-10h-231l-148 186z" />
    <glyph glyph-name="uni0177" unicode="&#x177;" horiz-adv-x="1179" 
d="M289 -435q-90 0 -165 30l61 211q58 -16 102.5 -16.5t79 27.5t58.5 88l27 72l-405 1140h279l257 -844h12l258 844h280l-451 -1262q-49 -138 -147 -214t-246 -76zM441 1251h-231v10l276 314h206l275 -314v-10h-231l-148 186z" />
    <glyph glyph-name="uni0178" unicode="&#x178;" horiz-adv-x="1442" 
d="M45 1489h305l364 -658h15l364 658h305l-542 -933v-556h-269v556zM504 1654q-57 0 -99 41t-42 96q0 58 41.5 97.5t99.5 39.5q59 0 99.5 -39.5t40.5 -97.5q0 -55 -41 -96t-99 -41zM940 1654q-57 0 -99 41t-42 96q0 58 41.5 97.5t99.5 39.5q59 0 99.5 -39.5t40.5 -97.5
q0 -55 -41 -96t-99 -41z" />
    <glyph glyph-name="uni0179" unicode="&#x179;" horiz-adv-x="1336" 
d="M119 0v168l764 1095h-768v226h1102v-168l-762 -1095h767v-226h-1103zM569 1636l163 333h258l-223 -333h-198z" />
    <glyph glyph-name="uni017A" unicode="&#x17a;" horiz-adv-x="1150" 
d="M121 0v167l576 722v10h-557v218h879v-180l-548 -709v-10h567v-218h-917zM473 1264l162 332h258l-223 -332h-197z" />
    <glyph glyph-name="uni017B" unicode="&#x17b;" horiz-adv-x="1336" 
d="M119 0v168l764 1095h-768v226h1102v-168l-762 -1095h767v-226h-1103zM671 1648q-63 0 -108 42t-45 101t45 101t108 42t107.5 -42t44.5 -101t-44.5 -101t-107.5 -42z" />
    <glyph glyph-name="uni017C" unicode="&#x17c;" horiz-adv-x="1150" 
d="M121 0v167l576 722v10h-557v218h879v-180l-548 -709v-10h567v-218h-917zM574 1276q-63 0 -108 41.5t-45 100.5t45 101t108 42t107.5 -42t44.5 -101t-44.5 -100.5t-107.5 -41.5z" />
    <glyph glyph-name="uni017D" unicode="&#x17d;" horiz-adv-x="1336" 
d="M119 0v168l764 1095h-768v226h1102v-168l-762 -1095h767v-226h-1103zM522 1948l148 -187l147 187h231v-11l-275 -314h-206l-275 314v11h230z" />
    <glyph glyph-name="uni017E" unicode="&#x17e;" horiz-adv-x="1150" 
d="M121 0v167l576 722v10h-557v218h879v-180l-548 -709v-10h567v-218h-917zM426 1575l148 -186l147 186h231v-10l-275 -314h-206l-275 314v10h230z" />
    <glyph glyph-name="uni017F" unicode="&#x17f;" horiz-adv-x="577" 
d="M286 0h-272v1180q0 182 103 279t290 97q69 0 156 -20l-23 -204q-37 8 -96 8q-78 0 -118.5 -41t-39.5 -119v-1180z" />
    <glyph glyph-name="uni0180" unicode="&#x180;" horiz-adv-x="1290" 
d="M147 0v1201h-218v166h218v122h263v-122h216v-166h-216v-269h11q99 200 319 200q201 0 331 -152.5t130 -422.5q0 -269 -128.5 -423t-331.5 -154q-221 0 -320 196h-15v-176h-259zM405 559q0 -165 69.5 -264t193.5 -99q127 0 196 100.5t69 262.5q0 161 -68.5 259t-196.5 98
q-125 0 -194 -96t-69 -261z" />
    <glyph glyph-name="uni0181" unicode="&#x181;" horiz-adv-x="1730" 
d="M532 0v1264h-66q-142 0 -142 -183v-77h-243v131q-1 160 102 257t281 97h638q234 0 358.5 -106.5t124.5 -279.5q0 -129 -72.5 -209.5t-188.5 -107.5v-14q128 -6 223.5 -106t95.5 -260q0 -182 -130.5 -294t-377.5 -112h-603zM801 225h291q141 0 209 54t68 148
q0 102 -73.5 168.5t-196.5 66.5h-298v-437zM801 856h267q107 0 177 58t70 154q0 89 -62.5 144t-178.5 55h-273v-411z" />
    <glyph glyph-name="uni0182" unicode="&#x182;" horiz-adv-x="1340" 
d="M147 0v1489h958v-226h-688v-349h287q255 0 401 -122t146 -328q0 -208 -147 -336t-400 -128h-557zM417 221h287q130 0 205 71.5t75 174.5q0 98 -74.5 163t-205.5 65h-287v-474z" />
    <glyph glyph-name="uni0183" unicode="&#x183;" horiz-adv-x="1290" 
d="M1046 1489v-202h-636v-355h11q99 200 319 200q201 0 331 -152.5t130 -422.5q0 -269 -128.5 -423t-331.5 -154q-221 0 -320 196h-15v-176h-259v1489h899zM405 559q0 -165 69.5 -264t193.5 -99q127 0 196 100.5t69 262.5q0 161 -68.5 259t-196.5 98q-125 0 -194 -96
t-69 -261z" />
    <glyph glyph-name="uni0184" unicode="&#x184;" horiz-adv-x="1558" 
d="M650 914h287q255 0 401 -122t146 -328q0 -208 -147 -336t-400 -128h-557v1263h-356v226h626v-575zM650 695v-474h287q130 0 205 71.5t75 174.5q0 98 -74.5 163t-205.5 65h-287z" />
    <glyph glyph-name="uni0185" unicode="&#x185;" horiz-adv-x="1342" 
d="M260 1536h50v-47h216v-517h14q34 66 105.5 113t182.5 47q97 0 180.5 -38t146.5 -109.5t99 -181.5t36 -246q0 -269 -129 -423t-330 -154q-116 0 -186.5 46t-104.5 113h-19v-139h-258v1047h-3l-182 181v125zM1037 559q0 163 -69.5 260t-202.5 97t-197 -97t-63 -260
q-1 -163 63.5 -263t196.5 -100q131 0 201.5 99t70.5 264z" />
    <glyph glyph-name="uni0186" unicode="&#x186;" horiz-adv-x="1522" 
d="M732 -20q-130 0 -242 40t-191.5 110t-131 163t-66.5 200l273 2q25 -129 122 -201t233 -72q186 0 300 136.5t114 386.5q0 247 -114.5 385t-301.5 138q-138 0 -234 -74.5t-119 -206.5h-273q34 244 207 383.5t424 139.5q146 0 271 -52.5t216.5 -149t143 -241.5t51.5 -322
q0 -235 -89 -410t-242.5 -265t-350.5 -90z" />
    <glyph glyph-name="uni0187" unicode="&#x187;" horiz-adv-x="1670" 
d="M1422 987h-272q-23 131 -119.5 206t-234.5 75q-187 0 -301.5 -138t-114.5 -385q0 -250 114.5 -386.5t300.5 -136.5q136 0 233 72t122 201l272 -2q-15 -107 -66.5 -200t-131 -163t-191.5 -110t-242 -40q-197 0 -350.5 90t-242.5 265t-89 410q0 177 52 322t143 241.5
t216 149t271 52.5q259 0 431 -144q52 78 139.5 119t194.5 41q88 0 132 -9v-215q-50 5 -78 5q-80 0 -134 -42t-54 -133v-145z" />
    <glyph glyph-name="uni0188" unicode="&#x188;" horiz-adv-x="1295" 
d="M1104 730h-255q-16 85 -74 137t-150 52q-123 0 -197 -96.5t-74 -263.5q0 -170 73.5 -268t197.5 -98q88 0 147.5 50t76.5 139h252q-15 -181 -143 -292.5t-335 -111.5q-247 0 -391.5 159.5t-144.5 416.5q0 258 145.5 418t388.5 160q158 0 274 -68q42 78 121.5 120t179.5 42
q75 0 119 -14v-184q-49 7 -69 7q-70 0 -106 -33.5t-36 -110.5v-161z" />
    <glyph glyph-name="uni0189" unicode="&#x189;" horiz-adv-x="1483" 
d="M652 0h-505v697h-215v166h215v626h515q333 0 523 -197.5t190 -545.5q0 -349 -191.5 -547.5t-531.5 -198.5zM417 233h222q468 0 468 513q0 510 -460 510h-230v-393h212v-166h-212v-464z" />
    <glyph glyph-name="uni018A" unicode="&#x18a;" horiz-adv-x="1876" 
d="M81 1004v131q-1 160 102 257t281 97h591q333 0 522.5 -197.5t189.5 -545.5q0 -349 -191.5 -547.5t-531.5 -198.5h-504v1256h-74q-43 0 -72 -14t-43.5 -40t-20.5 -55t-6 -66v-77h-243zM809 233h222q469 0 469 513q0 255 -116.5 382.5t-344.5 127.5h-230v-1023z" />
    <glyph glyph-name="uni018B" unicode="&#x18b;" horiz-adv-x="1346" 
d="M1226 0h-555q-254 0 -402 128t-148 336q0 207 147.5 330.5t402.5 123.5h275v329h-677v228h957v-1475zM946 224v469h-275q-131 0 -199.5 -63t-68.5 -163q0 -105 68.5 -174t199.5 -69h275z" />
    <glyph glyph-name="uni018C" unicode="&#x18c;" horiz-adv-x="1290" 
d="M245 1489h899v-1489h-259v176h-15q-99 -196 -320 -196q-203 0 -332 154t-129 423q0 270 130.5 422.5t331.5 152.5q220 0 319 -200h11v355h-636v202zM886 559q0 165 -69 261t-194 96q-128 0 -196.5 -98t-68.5 -259q0 -162 69 -262.5t196 -100.5q124 0 193.5 99t69.5 264z
" />
    <glyph glyph-name="uni018D" unicode="&#x18d;" horiz-adv-x="1262" 
d="M1013 -375h-781v212h427q-20 20 -186 151q-172 141 -262.5 274.5t-90.5 287.5v20q0 153 58.5 272.5t176 190t277.5 70.5q239 0 376 -142.5t137 -367.5v-20q0 -195 -117 -331t-305 -163q-12 -2 -36 -2q215 -187 326 -308v-144zM875 550v20q0 64 -12.5 118.5t-39.5 100.5
t-76 72t-115 26q-125 0 -184.5 -89t-59.5 -228v-20q0 -108 48 -191t120 -126q29 -10 67 -10q65 0 115 26t79 71.5t43.5 103.5t14.5 126z" />
    <glyph glyph-name="uni018E" unicode="&#x18e;" horiz-adv-x="1240" 
d="M1078 1489v-1489h-969v226h699v405h-649v226h649v406h-705v226h975z" />
    <glyph glyph-name="uni018F" unicode="&#x18f;" horiz-adv-x="1536" 
d="M770 -20q-306 0 -469.5 181t-163.5 499v155h982q-3 91 -27.5 164.5t-73 132t-131 90.5t-193.5 32q-202 0 -387 -64l-50 225q46 25 173 54t274 29q167 0 300 -50.5t219.5 -141.5t132 -216.5t45.5 -276.5v-134q0 -147 -49 -274.5t-133.5 -216t-201 -138.5t-247.5 -50z
M1116 591h-699v-31q0 -155 84.5 -247.5t268.5 -92.5q149 0 239.5 103t106.5 268z" />
    <glyph glyph-name="uni0190" unicode="&#x190;" horiz-adv-x="1346" 
d="M847 785v-150h-176q-136 0 -204 -52t-67 -171q-1 -105 75.5 -156.5t210.5 -51.5q120 0 190.5 56t71.5 144h281q0 -86 -31 -157.5t-84 -120t-123 -82.5t-147 -49t-158 -15q-169 0 -294.5 43.5t-200 141t-74.5 242.5q-1 124 65 210.5t190 128.5q-109 45 -171 126.5
t-61 189.5q-1 199 147 307.5t399 108.5q142 0 260 -49t190 -143.5t72 -217.5h-280q-1 85 -67.5 134t-174.5 49q-133 0 -199.5 -53t-65.5 -141q-1 -100 60 -152.5t190 -52.5h176v-67z" />
    <glyph glyph-name="uni0191" unicode="&#x191;" horiz-adv-x="1229" 
d="M177 0v1489h955v-226h-685v-404h619v-226h-619v-633v-86q0 -93 -28.5 -159.5t-82 -103.5t-120.5 -53.5t-153 -16.5q-59 0 -102 7v208q17 -3 59 -3q157 0 157 123v84z" />
    <glyph glyph-name="uni0192" unicode="&#x192;" horiz-adv-x="904" 
d="M769 1082v-196h-213v-945q1 -183 -92 -280t-265 -97q-82 0 -139 14l15 213q32 -11 97 -11q125 0 123 161v945h-171v196h171v98q1 181 102 278.5t274 97.5q91 0 173 -22l-35 -209q-46 11 -94 11q-76 0 -117 -39.5t-42 -116.5v-98h213z" />
    <glyph glyph-name="uni0193" unicode="&#x193;" horiz-adv-x="1666" 
d="M1420 1014h-277v6q-37 117 -127 182.5t-221 65.5q-185 0 -300 -138t-115 -384q0 -248 115 -386t306 -138q168 0 267.5 94t102.5 253h-343v211h604v-179q0 -189 -81.5 -330.5t-224.5 -216t-327 -74.5q-311 0 -500.5 206.5t-189.5 556.5q0 176 52 321.5t143 242.5t216 150
t271 53q228 0 397 -120q47 94 141.5 144.5t216.5 50.5q76 0 131 -14v-213q-56 7 -76 7q-183 0 -183 -148v-194q0 -1 1 -4t1 -5z" />
    <glyph glyph-name="uni0194" unicode="&#x194;" horiz-adv-x="1447" 
d="M63 1472h304l357 -834l356 834h304l-527 -1143q24 -53 61 -133t56.5 -123.5t41 -96t31 -87t9.5 -58.5q0 -132 -91.5 -199.5t-240.5 -67.5q-150 0 -244.5 67.5t-94.5 199.5q0 31 19 85.5t41 103t69.5 149t76.5 163.5zM725 43q-39 -86 -54.5 -128t-15.5 -76q0 -33 17.5 -54
t51.5 -21t51.5 22t17.5 53q0 56 -68 204z" />
    <glyph glyph-name="uni0195" unicode="&#x195;" horiz-adv-x="1987" 
d="M135 0v1489h258v-562h13q84 205 332 205q177 0 281 -110.5t104 -310.5v-273q0 -128 50.5 -182.5t122.5 -54.5q137 0 215 194t78 590v132h263v-132q0 -1005 -568 -1005q-198 0 -311 118t-113 340v233q0 113 -58 175.5t-162 62.5q-108 0 -174.5 -67.5t-66.5 -186.5v-655
h-264z" />
    <glyph glyph-name="uni0196" unicode="&#x196;" horiz-adv-x="775" 
d="M385 1536v-1180q0 -76 40.5 -118t117.5 -42q48 0 96 11l23 -207q-87 -20 -157 -20q-186 0 -289 97.5t-103 278.5v1180h272z" />
    <glyph glyph-name="uni0197" unicode="&#x197;" horiz-adv-x="562" 
d="M417 1489v-626h212v-166h-212v-697h-270v697h-215v166h215v626h270z" />
    <glyph glyph-name="uni0198" unicode="&#x198;" horiz-adv-x="1453" 
d="M147 0v1489h270v-673h18l524 561q104 111 231 127.5t249 -60.5l-91 -192q-58 30 -103.5 18.5t-98.5 -67.5l-376 -396l619 -807h-324l-464 617l-184 -200v-417h-270z" />
    <glyph glyph-name="uni0199" unicode="&#x199;" horiz-adv-x="1151" 
d="M842 0l-327 451l-116 -127v-324h-264v1177q0 74 19.5 132.5t52 95.5t79 61t95.5 34t106 10q90 0 139 -10v-206q-42 6 -69 6q-158 0 -158 -123v-489h14l378 429h314l-428 -477l460 -640h-295z" />
    <glyph glyph-name="uni019A" unicode="&#x19a;" horiz-adv-x="533" 
d="M399 1489v-626h216v-166h-216v-697h-264v697h-216v166h216v626h264z" />
    <glyph glyph-name="uni019B" unicode="&#x19b;" horiz-adv-x="1342" 
d="M760 1388v-188l-36 -12l357 -884q21 -50 44.5 -75.5t59.5 -25.5h35l2 -213q-34 -9 -102 -9q-114 0 -181.5 50t-112.5 168l-184 488l-239 -687h-294l392 1049l-24 56l-272 -92v188l199 67q-36 54 -110 54q-36 0 -56 -3l-5 203q65 18 147 18q109 0 172.5 -43t98.5 -128
l6 -16z" />
    <glyph glyph-name="uni019C" unicode="&#x19c;" horiz-adv-x="1918" 
d="M872 161q-109 -181 -344 -181q-184 0 -275 105t-91 346v1026h270v-1026q0 -232 166 -232q172 0 230 143q-3 42 -3 89v1026h267v-1026q0 -123 46 -177.5t123 -54.5q169 0 227 138v1120h270v-1457h-247l-11 118q-111 -138 -309 -138q-236 0 -319 181z" />
    <glyph glyph-name="uni019D" unicode="&#x19d;" horiz-adv-x="1521" 
d="M151 0v1489h242l701 -1015h13v1015h268v-1489h-240l-702 1015h-12v-1015h-1v-86q0 -92 -29.5 -159.5t-81.5 -104t-112.5 -53t-133.5 -16.5q-96 0 -128 7v208q17 -3 59 -3q157 0 157 123v84z" />
    <glyph glyph-name="uni019E" unicode="&#x19e;" horiz-adv-x="1248" 
d="M399 655v-655h-264v1117h252v-190h13q40 96 125.5 150.5t207.5 54.5q176 0 279.5 -111.5t103.5 -309.5v-1130h-264v1090q0 111 -57.5 174.5t-159.5 63.5q-105 0 -170.5 -68t-65.5 -186z" />
    <glyph glyph-name="uni019F" unicode="&#x19f;" horiz-adv-x="1586" 
d="M1478 745q0 -177 -52 -322t-144 -241.5t-217 -149t-272 -52.5t-272 52.5t-216.5 149t-143.5 241.5t-52 322t52 322t143.5 241.5t216.5 149t272 52.5t272 -52.5t217 -149t144 -241.5t52 -322zM793 222q164 0 273.5 107.5t133.5 305.5q-64 -24 -121 -32.5t-112.5 -2
t-89.5 15t-93 26.5q-55 17 -89 26t-87 16t-108 1.5t-116 -24.5q19 -210 129 -324.5t280 -114.5zM1203 831q-20 209 -130 323t-280 114q-163 0 -272 -107t-134 -304q51 19 101.5 27t85.5 9t82.5 -7.5t71.5 -15t73 -21.5q55 -18 89 -26t87.5 -15.5t109 -1.5t116.5 25z" />
    <glyph glyph-name="uni01A0" unicode="&#x1a0;" horiz-adv-x="1639" 
d="M1422 1574h190q0 -330 -228 -411q94 -179 94 -418q0 -177 -52 -322t-144 -241.5t-217 -149t-272 -52.5t-272 52.5t-216.5 149t-143.5 241.5t-52 322t52 322t143.5 241.5t216.5 149t272 52.5q149 0 276.5 -54t219.5 -155q133 37 133 273zM1207 745q0 249 -113.5 386
t-300.5 137q-186 0 -299.5 -137.5t-113.5 -385.5t113.5 -385.5t299.5 -137.5q187 0 300.5 137t113.5 386z" />
    <glyph glyph-name="uni01A1" unicode="&#x1a1;" horiz-adv-x="1271" 
d="M1095 1188h176q0 -265 -172 -345q59 -124 59 -289q0 -260 -145.5 -418t-389.5 -158t-390 158t-146 418q0 261 146 419.5t390 158.5q254 0 401 -172q40 28 55.5 84t15.5 144zM624 189q128 0 197.5 103t69.5 263q0 161 -69.5 264.5t-197.5 103.5q-130 0 -200 -103.5
t-70 -264.5t70 -263.5t200 -102.5z" />
    <glyph glyph-name="uni01A2" unicode="&#x1a2;" horiz-adv-x="1825" 
d="M1718 1457v-1873h-270v1565l-151 -64v-895q-28 -36 -68.5 -68t-105.5 -66.5t-163 -55t-214 -20.5q-288 0 -463.5 185.5t-174.5 516.5v93q0 164 46.5 297t130.5 221.5t202 136.5t259 48q312 0 487 -145l280 124h205zM391 762v-80q0 -223 92.5 -350.5t277.5 -127.5
q177 0 267 83v884q-83 81 -272 81q-181 0 -273 -123.5t-92 -353.5v-13z" />
    <glyph glyph-name="uni01A3" unicode="&#x1a3;" horiz-adv-x="1445" 
d="M1369 1082v-1498h-271v1183l-110 -50v-536q-135 -201 -405 -201q-125 0 -222.5 42.5t-158.5 117t-92.5 172.5t-31.5 213v32q0 114 31.5 212t92.5 173t159 118t222 43q200 0 340 -136l254 115h192zM580 196q84 0 137 45v591q-52 55 -140 55q-231 0 -229 -330v-32
q-1 -153 55 -241t177 -88z" />
    <glyph glyph-name="uni01A4" unicode="&#x1a4;" horiz-adv-x="1702" 
d="M324 1004h-243v131q-1 160 102 257t281 97h626q250 0 387.5 -136.5t137.5 -356.5q0 -145 -59.5 -255t-180 -174t-288.5 -64h-286v-503h-269v1264h-66q-142 0 -142 -183v-77zM801 725h249q145 0 217.5 73t72.5 198q0 124 -72.5 196t-218.5 72h-248v-539z" />
    <glyph glyph-name="uni01A5" unicode="&#x1a5;" horiz-adv-x="1279" 
d="M394 1117v-185h15q99 200 320 200q201 0 331 -152.5t130 -422.5q0 -269 -129 -423t-332 -154q-221 0 -320 196h-10v-595h-264v1536q0 146 84.5 216t255.5 70q87 0 138 -15v-186q-46 11 -84 12q-135 2 -135 -97zM393 559q0 -165 69.5 -264t193.5 -99q127 0 196 100.5
t69 262.5q0 161 -68.5 259t-196.5 98q-125 0 -194 -96t-69 -261z" />
    <glyph glyph-name="uni01A6" unicode="&#x1a6;" horiz-adv-x="1533" 
d="M103 1457h2v102h281v-102h255q258 0 400 -113.5t142 -326.5q0 -287 -268 -402l515 -956v-12h-300l-475 900h-269v-547h-283v1457zM386 771h255q126 0 194 62.5t68 165.5q0 110 -65.5 171t-196.5 61h-255v-460z" />
    <glyph glyph-name="uni01A7" unicode="&#x1a7;" horiz-adv-x="1329" 
d="M373 1080h-260q4 190 152.5 310t384.5 120q156 0 280.5 -54.5t195.5 -155t71 -229.5q0 -298 -397 -400l-169 -44q-134 -34 -200.5 -80t-67.5 -127q1 -95 83 -153.5t214 -58.5t217.5 59.5t93.5 172.5h265q-8 -220 -162 -341.5t-416 -121.5q-264 0 -414 120.5t-151 320.5
q0 75 24.5 138.5t65 109t98 82t118.5 59.5t132 40l140 35q52 12 92 27.5t79.5 39t60.5 59t21 79.5q-1 86 -73.5 140t-196.5 54q-121 0 -196 -53t-85 -148z" />
    <glyph glyph-name="uni01A8" unicode="&#x1a8;" horiz-adv-x="1124" 
d="M106 822q28 145 143 227.5t307 82.5q203 0 327.5 -92.5t123.5 -246.5q2 -250 -314 -315l-190 -40q-151 -34 -151 -127q0 -58 57.5 -96t150.5 -38q187 0 222 152l257 -24q-25 -155 -150.5 -241t-329.5 -86q-210 0 -343 99t-134 258q1 119 78 193t236 109l191 41
q84 19 121.5 49.5t36.5 79.5q1 56 -54.5 92t-138.5 36q-85 0 -137.5 -39.5t-68.5 -99.5z" />
    <glyph glyph-name="uni01A9" unicode="&#x1a9;" horiz-adv-x="1348" 
d="M1193 229v-229h-1051v153l457 583l-457 585v154h1020v-231h-639l373 -499v-16l-374 -500h671z" />
    <glyph glyph-name="uni01AA" unicode="&#x1aa;" horiz-adv-x="1258" 
d="M127 1185q-1 159 114 273t278 114q161 0 276.5 -114t116.5 -273v-1218q-1 -171 138 -171q41 0 82 8v-211q-53 -16 -140 -16q-169 0 -260.5 100.5t-90.5 289.5v851q-57 -19 -122 -19q-107 0 -197.5 51.5t-142.5 140.5t-52 194zM520 1033q64 0 106 40t42 115q0 73 -42 113
t-106 40q-68 0 -110 -40t-42 -113q0 -76 41.5 -115.5t110.5 -39.5z" />
    <glyph glyph-name="uni01AB" unicode="&#x1ab;" horiz-adv-x="785" 
d="M693 1117v-204h-220v-577q0 -74 31.5 -101.5t87.5 -27.5h23l105 22v-315q0 -156 -88.5 -243.5t-234.5 -87.5q-75 0 -120 11v186q40 -6 71 -6q171 0 171 140v71q-139 7 -225 86t-85 221v621h-158v204h158v268h264v-268h220z" />
    <glyph glyph-name="uni01AC" unicode="&#x1ac;" horiz-adv-x="1425" 
d="M1344 1489v-226h-460v-1263h-268v1263h-164q-142 0 -142 -176v-76h-229v124q0 164 97.5 259t273.5 95h892z" />
    <glyph glyph-name="uni01AD" unicode="&#x1ad;" horiz-adv-x="880" 
d="M737 1082v-196h-193v-557q0 -71 29 -99t86 -28q31 0 87 8v-206q-74 -24 -171 -24q-140 0 -220 79.5t-80 247.5v579h-172v196h172v157q0 91 28.5 157.5t80.5 104t115 54.5t141 17q77 0 138 -16v-179q-38 9 -67 9q-73 0 -120 -34t-47 -113v-157h193z" />
    <glyph glyph-name="uni01AE" unicode="&#x1ae;" horiz-adv-x="1351" 
d="M81 1263v226h1189v-226h-461v-1349q0 -117 164 -117h60v-216h-129q-58 0 -108.5 10t-98 34t-81 61t-54 95.5t-20.5 132.5v1349h-461z" />
    <glyph glyph-name="uni01AF" unicode="&#x1af;" horiz-adv-x="1778" 
d="M1508 1555h189q0 -206 -78.5 -319.5t-262.5 -135.5v-595q0 -164 -80 -285.5t-216 -182t-309 -60.5q-174 0 -309.5 61t-215 182t-79.5 285v984h270v-978q0 -134 94.5 -212.5t239.5 -78.5t240.5 78.5t95.5 212.5v978h269v-227q91 22 121.5 91.5t30.5 201.5z" />
    <glyph glyph-name="uni01B0" unicode="&#x1b0;" horiz-adv-x="1392" 
d="M1258 1175h170q-1 -174 -71 -262.5t-242 -102.5v-810h-255v199h-12q-40 -97 -127.5 -155.5t-208.5 -58.5q-168 0 -270 111.5t-102 309.5v711h263v-670q0 -106 57.5 -169t153.5 -63q95 0 166.5 67.5t71.5 187.5v647h263v-174q38 5 64.5 18t42 30t23.5 47.5t10.5 60
t2.5 76.5z" />
    <glyph glyph-name="uni01B1" unicode="&#x1b1;" horiz-adv-x="1582" 
d="M103 689q0 190 75.5 332t212.5 231v11h-288v226h570v-285q-131 -54 -216 -190t-85 -309q0 -207 118 -344.5t301 -137.5t301 137.5t118 344.5q0 173 -84.5 309t-215.5 190v285h570v-226h-289v-11q137 -87 213 -230t76 -333q0 -154 -51.5 -285.5t-141.5 -224.5t-218.5 -146
t-277.5 -53q-199 0 -356 90t-244.5 252t-87.5 367z" />
    <glyph glyph-name="uni01B2" unicode="&#x1b2;" horiz-adv-x="1342" 
d="M673 -20q-252 0 -407 133.5t-155 377.5v966h280v-966q0 -142 72 -214.5t210 -72.5q137 0 207.5 72.5t70.5 214.5v596q0 88 -34 123.5t-113 35.5q-48 0 -80 -7v220q60 17 138 17q173 0 273.5 -101.5t99.5 -287.5v-596q0 -123 -42.5 -221t-118.5 -161t-178 -96t-223 -33z
" />
    <glyph glyph-name="uni01B3" unicode="&#x1b3;" horiz-adv-x="1560" 
d="M1235 1139l-347 -551v-588h-269v588l-565 901h297l394 -658h17l246 409l43 72q42 72 99 118.5t119 63.5t127 11.5t130 -31.5l-61 -206q-66 25 -114 6.5t-88 -88.5z" />
    <glyph glyph-name="uni01B4" unicode="&#x1b4;" horiz-adv-x="1267" 
d="M1032 935l-369 -1097q-39 -115 -139 -194.5t-245 -79.5q-82 0 -136 18v213q20 -4 63 -4q97 0 150 36.5t80 118.5l25 74l-404 1097h277l246 -714l202 605l22 70q91 264 280 288q28 5 55 6t60 -4t58.5 -11t71.5 -17l-32 -199q-62 21 -100 17q-55 -8 -86 -48.5t-64 -132.5z
" />
    <glyph glyph-name="uni01B5" unicode="&#x1b5;" horiz-adv-x="1336" 
d="M119 0v168l369 529h-148v166h264l279 400h-768v226h1102v-168l-319 -458h139v-166h-254l-328 -471h767v-226h-1103z" />
    <glyph glyph-name="uni01B6" unicode="&#x1b6;" horiz-adv-x="1150" 
d="M121 0v167l248 312h-145v167h279l194 243v10h-557v218h879v-180l-226 -291h128v-167h-256l-194 -251v-10h567v-218h-917z" />
    <glyph glyph-name="uni01B7" unicode="&#x1b7;" horiz-adv-x="1402" 
d="M81 113h273q8 -127 109 -209t234 -82q105 0 183.5 58t117.5 149t39 199q0 178 -112 291.5t-292 113.5h-144v202l443 412v12h-768v230h1112v-194l-499 -467v-15q126 -9 229 -60.5t169.5 -132t102 -184t35.5 -219.5q0 -130 -44 -244.5t-123.5 -199t-196.5 -133.5t-255 -49
q-166 0 -304 65.5t-220.5 185.5t-88.5 271z" />
    <glyph glyph-name="uni01B8" unicode="&#x1b8;" horiz-adv-x="1402" 
d="M1321 113q-6 -151 -88.5 -271t-220.5 -185.5t-304 -65.5q-138 0 -255 49t-196.5 133.5t-123.5 199t-44 244.5q0 116 35.5 219.5t102 184t169.5 132t229 60.5v15l-498 467v194h1111v-230h-767v-12l442 -412v-202h-144q-180 0 -292 -113.5t-112 -291.5q0 -108 39 -199
t117.5 -149t183.5 -58q133 0 234 82t109 209h273z" />
    <glyph glyph-name="uni01B9" unicode="&#x1b9;" horiz-adv-x="1324" 
d="M1215 33q-9 -193 -160.5 -309.5t-383.5 -116.5q-240 0 -396 124t-156 319q0 169 120 290.5t333 139.5v12l-400 430v195h970v-225h-630v-11l345 -378v-194h-148q-154 0 -233.5 -68.5t-79.5 -176.5q0 -107 75.5 -169t196.5 -62q114 0 190.5 53.5t84.5 146.5h272z" />
    <glyph glyph-name="uni01BA" unicode="&#x1ba;" horiz-adv-x="1154" 
d="M156 1082h892v-155l-318 -277q123 -35 192.5 -114.5t70.5 -182.5q0 -72 -31.5 -128t-89 -93.5t-124 -62t-152.5 -42.5q-133 -28 -182 -62t-49 -85q0 -57 50 -88.5t138 -31.5q87 0 149 39t67 127h259q0 -67 -31.5 -131t-89 -116t-148.5 -83.5t-201 -31.5q-206 0 -331 92.5
t-124 237.5q-1 135 99.5 213t306.5 118q126 25 173 54t48 86q-1 53 -44.5 83.5t-125.5 30.5h-220v158l290 229h-474v216z" />
    <glyph glyph-name="uni01BB" unicode="&#x1bb;" horiz-adv-x="1272" 
d="M132 0v195l517 507q1 1 3.5 3t3.5 3h-137v167h285q68 95 68 189q0 103 -69.5 165t-177.5 62q-111 0 -178 -66.5t-67 -180.5h-256q0 210 140.5 338t363.5 128t363 -122t140 -310q0 -104 -50 -203h135v-167h-251q-68 -80 -204 -211l-256 -261v-11h648v-225h-1021z" />
    <glyph glyph-name="uni01BC" unicode="&#x1bc;" horiz-adv-x="1275" 
d="M673 -20q-218 0 -363.5 120t-150.5 305h262q7 -91 78.5 -149t173.5 -58q120 0 197.5 80t76.5 205q1 126 -78.5 207.5t-202.5 82.5q-66 1 -131 -25t-103 -67l-244 40l56 543h-173v225h1059v-225h-641l-42 -395h8q43 50 119 82t164 32q204 0 337 -139.5t133 -354.5
q0 -223 -149.5 -366t-385.5 -143z" />
    <glyph glyph-name="uni01BD" unicode="&#x1bd;" horiz-adv-x="1262" 
d="M489 464l-241 14l50 387h-169v217h935v-217h-516l-28 -198q36 20 96 36t123 17q186 2 290 -95t104 -272q0 -168 -114 -269t-349 -101q-88 0 -169.5 20.5t-148.5 59.5t-107.5 105t-40.5 149l265 15q3 -62 57.5 -96.5t143.5 -34.5q97 0 145.5 44.5t49.5 122.5
q-1 75 -52 119.5t-143 44.5q-124 0 -181 -68z" />
    <glyph glyph-name="uni01BE" unicode="&#x1be;" horiz-adv-x="1154" 
d="M777 297q0 25 -9.5 46t-33 41t-40 31.5t-53.5 33.5q-43 25 -67 41t-61 49t-57 66.5t-36 86.5t-16 116v78h-171v196h171v266h272v-266h192v-196h-192v-78q0 -37 10.5 -68.5t23.5 -52t40 -42t45 -32.5t53 -30q38 -21 58 -33t50.5 -37.5t45.5 -50.5t27 -64.5t12 -87.5
q1 -145 -124 -237.5t-330 -92.5q-111 0 -202.5 32t-149 84t-89 116.5t-31.5 131.5h260q5 -88 67.5 -128t148.5 -40q88 0 137.5 32.5t48.5 88.5z" />
    <glyph glyph-name="uni01BF" unicode="&#x1bf;" horiz-adv-x="1351" 
d="M447 975q107 128 288 128q206 0 319 -149.5t113 -400.5v-22q0 -117 -31.5 -212.5t-88.5 -168t-147.5 -132.5t-196.5 -103.5t-247 -83.5v-247h-271v1498h251zM456 43q206 54 322.5 174.5t116.5 313.5v22q0 146 -57.5 238.5t-176.5 92.5q-145 0 -205 -115v-726z" />
    <glyph glyph-name="uni01C0" unicode="&#x1c0;" horiz-adv-x="590" 
d="M383 1472v-1472h-175v1472h175z" />
    <glyph glyph-name="uni01C1" unicode="&#x1c1;" horiz-adv-x="781" 
d="M343 1472v-1472h-175v1472h175zM612 1472v-1472h-175v1472h175z" />
    <glyph glyph-name="uni01C2" unicode="&#x1c2;" horiz-adv-x="791" 
d="M489 1472v-367h236v-167h-236v-306h259v-167h-259v-465h-175v465h-262v167h262v306h-286v167h286v367h175z" />
    <glyph glyph-name="uni01C3" unicode="&#x1c3;" horiz-adv-x="632" 
d="M457 1489l-24 -1051h-234l-23 1051h281zM316 -16q-67 0 -114 46.5t-46 113.5q-1 65 46 112t114 47q65 0 112 -47t48 -112q-1 -66 -48 -113t-112 -47z" />
    <glyph glyph-name="uni01C5" unicode="&#x1c5;" horiz-adv-x="2634" 
d="M652 0h-505v1489h515q333 0 523 -197.5t190 -545.5q0 -349 -191.5 -547.5t-531.5 -198.5zM417 233h222q468 0 468 513q0 510 -460 510h-230v-1023zM1604 0v167l576 722v10h-557v218h880v-180l-549 -709v-10h567v-218h-917zM1910 1575l147 -186l148 186h231v-10l-275 -314
h-206l-276 314v10h231z" />
    <glyph glyph-name="uni01C6" unicode="&#x1c6;" horiz-adv-x="2247" 
d="M550 -20q-203 0 -332 154t-129 423q0 270 130.5 422.5t331.5 152.5q220 0 319 -200h11v557h264v-1489h-259v176h-16q-99 -196 -320 -196zM1218 0v167l576 722v10h-557v218h879v-180l-548 -709v-10h567v-218h-917zM623 196q124 0 193.5 99t69.5 264t-69 261t-194 96
q-128 0 -196.5 -98t-68.5 -259q0 -162 69 -262.5t196 -100.5zM1524 1575l147 -186l148 186h230v-10l-274 -314h-206l-276 314v10h231z" />
    <glyph glyph-name="uni01C7" unicode="&#x1c7;" horiz-adv-x="2307" 
d="M147 0v1489h270v-1263h656v-226h-926zM1894 1489h267v-1047q-1 -214 -132 -338t-348 -124q-204 0 -333 108.5t-129 307.5h268q1 -90 57 -142.5t147 -52.5q97 0 149.5 62t53.5 179v1047z" />
    <glyph glyph-name="uni01C8" unicode="&#x1c8;" horiz-adv-x="1692" 
d="M147 0v1489h270v-1263h656v-226h-926zM1295 1117h263v-1179q0 -179 -101 -268.5t-291 -86.5q-8 1 -24.5 1.5t-25.5 0.5v214q15 -1 37 -1q74 0 108 36t34 108v1175zM1425 1276q-63 0 -107.5 41.5t-44.5 100.5t44.5 101t107.5 42t107.5 -42t44.5 -101t-44.5 -100.5
t-107.5 -41.5z" />
    <glyph glyph-name="uni01C9" unicode="&#x1c9;" horiz-adv-x="1060" 
d="M641 1117h263v-1179q0 -179 -101 -268.5t-291 -86.5q-8 1 -24.5 1.5t-25.5 0.5v214q15 -1 38 -1q74 0 107.5 36t33.5 108v1175zM399 1489v-1489h-264v1489h264zM772 1276q-63 0 -108 41.5t-45 100.5t45 101t108 42t107.5 -42t44.5 -101t-44.5 -100.5t-107.5 -41.5z" />
    <glyph glyph-name="uni01CA" unicode="&#x1ca;" horiz-adv-x="2666" 
d="M1371 1489v-1489h-240l-702 1015h-12v-1015h-270v1489h241l701 -1015h14v1015h268zM2252 1489h267v-1047q-1 -214 -132 -338t-348 -124q-204 0 -333 108.5t-129 307.5h268q1 -90 57 -142.5t147 -52.5q97 0 149.5 62t53.5 179v1047z" />
    <glyph glyph-name="uni01CB" unicode="&#x1cb;" horiz-adv-x="2026" 
d="M1371 1489v-1489h-240l-702 1015h-12v-1015h-270v1489h241l701 -1015h14v1015h268zM1607 1117h264v-1179q0 -179 -101 -268.5t-291 -86.5q-8 1 -25 1.5t-26 0.5v214q15 -1 38 -1q74 0 107.5 36t33.5 108v1175zM1738 1276q-63 0 -108 41.5t-45 100.5t45 101t108 42
t107.5 -42t44.5 -101t-44.5 -100.5t-107.5 -41.5z" />
    <glyph glyph-name="uni01CC" unicode="&#x1cc;" horiz-adv-x="1781" 
d="M399 655v-655h-264v1117h252v-190h13q39 96 125 150.5t208 54.5q176 0 280 -111.5t103 -309.5v-711h-264v671q0 112 -57.5 175t-159.5 63q-106 0 -171 -67.5t-65 -186.5zM1384 1117h263v-1179q0 -179 -101 -268.5t-291 -86.5q-8 1 -24.5 1.5t-25.5 0.5v214q15 -1 38 -1
q74 0 107.5 36t33.5 108v1175zM1515 1276q-63 0 -108 41.5t-45 100.5t45 101t108 42t107.5 -42t44.5 -101t-44.5 -100.5t-107.5 -41.5z" />
    <glyph glyph-name="uni01CD" unicode="&#x1cd;" horiz-adv-x="1482" 
d="M338 0h-288l525 1489h333l525 -1489h-288l-124 367h-560zM593 1948l148 -187l148 187h230v-11l-275 -314h-205l-276 314v11h230zM534 584h414l-201 600h-12z" />
    <glyph glyph-name="uni01CE" unicode="&#x1ce;" horiz-adv-x="1176" 
d="M457 -23q-166 0 -270 88t-104 248q0 73 24 129.5t62 92.5t95.5 61t114 37t128.5 20q13 1 37 4q154 16 192 31q47 19 47 65v5q0 83 -49 127.5t-140 44.5t-149.5 -40t-79.5 -102l-246 35q43 150 168.5 229.5t305.5 79.5q67 0 129 -11.5t122.5 -39.5t104.5 -70.5t71 -110
t27 -152.5v-748h-254v153h-8q-40 -77 -122.5 -126.5t-205.5 -49.5zM457 1575l147 -186l148 186h231v-10l-275 -314h-206l-276 314v10h231zM525 171q116 0 187.5 67t71.5 163v131q-33 -27 -241 -54q-206 -30 -206 -160q0 -71 51.5 -109t136.5 -38z" />
    <glyph glyph-name="uni01CF" unicode="&#x1cf;" horiz-adv-x="562" 
d="M417 1489v-1489h-270v1489h270zM135 1948l147 -187l148 187h230v-11l-275 -314h-205l-276 314v11h231z" />
    <glyph glyph-name="uni01D0" unicode="&#x1d0;" horiz-adv-x="533" 
d="M135 0v1117h264v-1117h-264zM120 1575l148 -186l147 186h231v-10l-275 -314h-206l-276 314v10h231z" />
    <glyph glyph-name="uni01D1" unicode="&#x1d1;" horiz-adv-x="1586" 
d="M1478 745q0 -177 -52 -322t-144 -241.5t-217 -149t-272 -52.5t-272 52.5t-216.5 149t-143.5 241.5t-52 322t52 322t143.5 241.5t216.5 149t272 52.5t272 -52.5t217 -149t144 -241.5t52 -322zM1207 745q0 249 -113.5 386t-300.5 137q-186 0 -299.5 -137.5t-113.5 -385.5
t113.5 -385.5t299.5 -137.5q187 0 300.5 137t113.5 386zM646 1948l147 -187l148 187h231v-11l-275 -314h-206l-276 314v11h231z" />
    <glyph glyph-name="uni01D2" unicode="&#x1d2;" horiz-adv-x="1245" 
d="M623 -22q-244 0 -390 158t-146 418q0 261 146 419.5t390 158.5t389.5 -158.5t145.5 -419.5q0 -260 -145.5 -418t-389.5 -158zM624 189q128 0 197.5 103t69.5 263q0 161 -69.5 264.5t-197.5 103.5q-130 0 -200 -103.5t-70 -264.5t70 -263.5t200 -102.5zM475 1575l148 -186
l147 186h231v-10l-275 -314h-206l-276 314v10h231z" />
    <glyph glyph-name="uni01D3" unicode="&#x1d3;" horiz-adv-x="1502" 
d="M1087 1489h269v-984q0 -164 -80 -285.5t-216 -182t-309 -60.5q-174 0 -309.5 61t-215 182t-79.5 285v984h270v-978q0 -134 94.5 -212.5t239.5 -78.5t240.5 78.5t95.5 212.5v978zM604 1948l147 -187l148 187h230v-11l-274 -314h-206l-276 314v11h231z" />
    <glyph glyph-name="uni01D4" unicode="&#x1d4;" horiz-adv-x="1245" 
d="M847 470v647h264v-1117h-256v199h-11q-40 -97 -127.5 -155.5t-208.5 -58.5q-168 0 -270.5 111.5t-102.5 309.5v711h264v-670q0 -106 57 -169t153 -63q95 0 166.5 67.5t71.5 187.5zM476 1575l148 -186l148 186h230v-10l-275 -314h-206l-275 314v10h230z" />
    <glyph glyph-name="uni01D5" unicode="&#x1d5;" horiz-adv-x="1502" 
d="M1087 1489h269v-984q0 -164 -80 -285.5t-216 -182t-309 -60.5q-174 0 -309.5 61t-215 182t-79.5 285v984h270v-978q0 -134 94.5 -212.5t239.5 -78.5t240.5 78.5t95.5 212.5v978zM1101 2234v-161h-700v161h700zM533 1654q-57 0 -99 41t-42 96q0 58 41.5 97.5t99.5 39.5
q59 0 99.5 -39.5t40.5 -97.5q0 -55 -40.5 -96t-99.5 -41zM969 1654q-57 0 -99 41t-42 96q0 58 41.5 97.5t99.5 39.5q59 0 99.5 -39.5t40.5 -97.5q0 -55 -40.5 -96t-99.5 -41z" />
    <glyph glyph-name="uni01D6" unicode="&#x1d6;" horiz-adv-x="1245" 
d="M847 470v647h264v-1117h-256v199h-11q-40 -97 -127.5 -155.5t-208.5 -58.5q-168 0 -270.5 111.5t-102.5 309.5v711h264v-670q0 -106 57 -169t153 -63q95 0 166.5 67.5t71.5 187.5zM975 1862v-161h-700v161h700zM407 1281q-57 0 -99.5 41t-42.5 96q0 58 42 98t100 40
q59 0 99 -39.5t40 -98.5q0 -56 -40.5 -96.5t-98.5 -40.5zM843 1281q-57 0 -99 41t-42 96q0 58 41.5 98t99.5 40q59 0 99.5 -40t40.5 -98q0 -56 -40.5 -96.5t-99.5 -40.5z" />
    <glyph glyph-name="uni01D7" unicode="&#x1d7;" horiz-adv-x="1502" 
d="M1087 1489h269v-984q0 -164 -80 -285.5t-216 -182t-309 -60.5q-174 0 -309.5 61t-215 182t-79.5 285v984h270v-978q0 -134 94.5 -212.5t239.5 -78.5t240.5 78.5t95.5 212.5v978zM534 1599q-57 0 -99 41t-42 96q0 58 41.5 97.5t99.5 39.5q59 0 99 -39.5t40 -97.5
q0 -56 -40.5 -96.5t-98.5 -40.5zM970 1599q-57 0 -99 41t-42 96q0 58 41.5 97.5t99.5 39.5q59 0 99.5 -39.5t40.5 -97.5q0 -56 -41 -96.5t-99 -40.5zM650 1967l202 247h258l-263 -247h-197z" />
    <glyph glyph-name="uni01D8" unicode="&#x1d8;" horiz-adv-x="1245" 
d="M847 470v647h264v-1117h-256v199h-11q-40 -97 -127.5 -155.5t-208.5 -58.5q-168 0 -270.5 111.5t-102.5 309.5v711h264v-670q0 -106 57 -169t153 -63q95 0 166.5 67.5t71.5 187.5zM523 1636l162 333h258l-223 -333h-197zM407 1281q-57 0 -99.5 41t-42.5 96q0 58 42 98
t100 40q59 0 99 -39.5t40 -98.5q0 -56 -40.5 -96.5t-98.5 -40.5zM843 1281q-57 0 -99 41t-42 96q0 58 41.5 98t99.5 40q59 0 99.5 -40t40.5 -98q0 -56 -40.5 -96.5t-99.5 -40.5z" />
    <glyph glyph-name="uni01D9" unicode="&#x1d9;" horiz-adv-x="1502" 
d="M1087 1489h269v-984q0 -164 -80 -285.5t-216 -182t-309 -60.5q-174 0 -309.5 61t-215 182t-79.5 285v984h270v-978q0 -134 94.5 -212.5t239.5 -78.5t240.5 78.5t95.5 212.5v978zM612 2121l139 -116l138 116h231v-16l-279 -227h-181l-279 227v16h231zM393 1764
q0 50 36 83.5t95 33.5q60 0 96 -33.5t36 -83.5t-36 -82.5t-96 -32.5q-59 0 -95 33t-36 82zM846 1764q0 49 36 82t96 33q58 0 94.5 -33t36.5 -82t-36 -82.5t-95 -33.5q-60 0 -96 33.5t-36 82.5z" />
    <glyph glyph-name="uni01DA" unicode="&#x1da;" horiz-adv-x="1245" 
d="M847 470v647h264v-1117h-256v199h-11q-40 -97 -127.5 -155.5t-208.5 -58.5q-168 0 -270.5 111.5t-102.5 309.5v711h264v-670q0 -106 57 -169t153 -63q95 0 166.5 67.5t71.5 187.5zM476 1857l148 -149l151 149h229v-12l-294 -280h-171l-294 281v11h231zM731 1376
q0 52 37.5 88.5t96.5 36.5q60 0 98.5 -36.5t38.5 -88.5q0 -50 -38.5 -85.5t-98.5 -35.5q-59 0 -96.5 35t-37.5 86zM251 1377q0 52 37 88t96 36q60 0 98 -36t38 -88t-38 -86.5t-98 -34.5q-59 0 -96 34.5t-37 86.5z" />
    <glyph glyph-name="uni01DB" unicode="&#x1db;" horiz-adv-x="1502" 
d="M1087 1489h269v-984q0 -164 -80 -285.5t-216 -182t-309 -60.5q-174 0 -309.5 61t-215 182t-79.5 285v984h270v-978q0 -134 94.5 -212.5t239.5 -78.5t240.5 78.5t95.5 212.5v978zM393 1764q-1 50 35 83.5t94 33.5q60 0 97 -33.5t37 -83.5t-36.5 -82.5t-95.5 -32.5
q-60 0 -96 33t-35 82zM845 1764q-1 50 35.5 82.5t96.5 32.5q58 0 94 -33t37 -82q-1 -49 -36.5 -82.5t-94.5 -33.5q-60 0 -96.5 33t-35.5 83zM708 2057l131 -203h-152l-184 203h205z" />
    <glyph glyph-name="uni01DC" unicode="&#x1dc;" horiz-adv-x="1245" 
d="M847 470v647h264v-1117h-256v199h-11q-40 -97 -127.5 -155.5t-208.5 -58.5q-168 0 -270.5 111.5t-102.5 309.5v711h264v-670q0 -106 57 -169t153 -63q95 0 166.5 67.5t71.5 187.5zM561 1855l201 -306h-224l-278 306h301zM729 1376q0 53 38.5 89t98.5 36q59 0 97 -36.5
t38 -88.5q0 -51 -38 -86t-97 -35q-60 0 -98.5 35.5t-38.5 85.5zM249 1377q0 52 37.5 88t96.5 36q60 0 98 -36t38 -88t-38 -86.5t-98 -34.5q-59 0 -96.5 34.5t-37.5 86.5z" />
    <glyph glyph-name="uni01DD" unicode="&#x1dd;" horiz-adv-x="1213" 
d="M584 1139q252 0 397.5 -155t145.5 -419q0 -260 -145 -420t-384 -160q-106 0 -196.5 34t-161.5 101t-112 177.5t-41 252.5v81h778q-1 142 -78.5 222.5t-206.5 80.5q-86 0 -147.5 -37t-88.5 -107l-246 27q36 148 165 235t321 87zM865 453h-525q1 -115 71.5 -188.5
t182.5 -73.5q115 0 190 76t81 186z" />
    <glyph glyph-name="uni01DE" unicode="&#x1de;" horiz-adv-x="1482" 
d="M338 0h-288l525 1489h333l525 -1489h-288l-124 367h-560zM534 584h414l-201 600h-12zM1091 2234v-161h-700v161h700zM523 1654q-57 0 -99 41t-42 96q0 58 41.5 97.5t99.5 39.5q59 0 99.5 -39.5t40.5 -97.5q0 -55 -40.5 -96t-99.5 -41zM959 1654q-57 0 -99 41t-42 96
q0 58 41.5 97.5t99.5 39.5q59 0 99.5 -39.5t40.5 -97.5q0 -55 -40.5 -96t-99.5 -41z" />
    <glyph glyph-name="uni01DF" unicode="&#x1df;" horiz-adv-x="1176" 
d="M457 -23q-166 0 -270 88t-104 248q0 73 24 129.5t62 92.5t95.5 61t114 37t128.5 20q13 1 37 4q154 16 192 31q47 19 47 65v5q0 83 -49 127.5t-140 44.5t-149.5 -40t-79.5 -102l-246 35q43 150 168.5 229.5t305.5 79.5q67 0 129 -11.5t122.5 -39.5t104.5 -70.5t71 -110
t27 -152.5v-748h-254v153h-8q-40 -77 -122.5 -126.5t-205.5 -49.5zM525 171q116 0 187.5 67t71.5 163v131q-33 -27 -241 -54q-206 -30 -206 -160q0 -71 51.5 -109t136.5 -38zM954 1862v-161h-699v161h699zM386 1281q-57 0 -99 41t-42 96q0 58 41.5 98t99.5 40q59 0 99.5 -40
t40.5 -98q0 -56 -41 -96.5t-99 -40.5zM823 1281q-57 0 -99.5 41t-42.5 96q0 58 42 98t100 40q59 0 99 -39.5t40 -98.5q0 -56 -40.5 -96.5t-98.5 -40.5z" />
    <glyph glyph-name="uni01E0" unicode="&#x1e0;" horiz-adv-x="1482" 
d="M338 0h-288l525 1489h333l525 -1489h-288l-124 367h-560zM534 584h414l-201 600h-12zM1089 2161v-145h-699v145h699zM741 1637q-63 0 -108 38.5t-45 92.5q0 55 45 93.5t108 38.5t107.5 -38.5t44.5 -93.5q0 -54 -44.5 -92.5t-107.5 -38.5z" />
    <glyph glyph-name="uni01E1" unicode="&#x1e1;" horiz-adv-x="1176" 
d="M457 -23q-166 0 -270 88t-104 248q0 73 24 129.5t62 92.5t95.5 61t114 37t128.5 20q13 1 37 4q154 16 192 31q47 19 47 65v5q0 83 -49 127.5t-140 44.5t-149.5 -40t-79.5 -102l-246 35q43 150 168.5 229.5t305.5 79.5q67 0 129 -11.5t122.5 -39.5t104.5 -70.5t71 -110
t27 -152.5v-748h-254v153h-8q-40 -77 -122.5 -126.5t-205.5 -49.5zM525 171q116 0 187.5 67t71.5 163v131q-33 -27 -241 -54q-206 -30 -206 -160q0 -71 51.5 -109t136.5 -38zM955 1747v-145h-700v145h700zM607 1223q-63 0 -108 38.5t-45 92.5q0 55 45 93.5t108 38.5
t107.5 -38.5t44.5 -93.5q0 -54 -44.5 -92.5t-107.5 -38.5z" />
    <glyph glyph-name="uni01E2" unicode="&#x1e2;" horiz-adv-x="2082" 
d="M50 0l666 1489h1237v-226h-698v-404h648v-226h-648v-407h704v-226h-974v367h-479l-159 -367h-297zM600 584h385v645h-106zM1685 1862v-161h-700v161h700z" />
    <glyph glyph-name="uni01E3" unicode="&#x1e3;" horiz-adv-x="1878" 
d="M1308 -22q-141 0 -250 56t-162 156h-8q-41 -94 -158.5 -153.5t-261.5 -59.5q-174 0 -279.5 88t-105.5 248q0 73 24 129.5t62 92.5t96 61t114.5 37t127.5 20h1h1h1h1l1 1h1h1h1h1h1h1h1h1l1 1h1h1h1h1h1h1h1h1l2 1q163 17 203 32q49 19 49 65v5q0 82 -49 127t-140 45
t-149.5 -40t-79.5 -102l-246 35q43 151 168.5 230t308.5 79q48 0 92.5 -7.5t90.5 -24t85.5 -48.5t65.5 -77q127 157 351 157q105 0 195.5 -34t162 -101t112 -177.5t40.5 -252.5v-80h-777q2 -142 79.5 -223t205.5 -81q86 0 148 37t88 107l246 -27q-36 -147 -163.5 -234.5
t-309.5 -87.5zM525 171q116 0 187.5 67t71.5 163v131q-33 -27 -241 -54q-206 -30 -206 -160q0 -71 51.5 -109t136.5 -38zM1271 1489v-160h-699v160h699zM1015 664h524q-1 115 -72 189t-183 74q-114 0 -188.5 -76.5t-80.5 -186.5z" />
    <glyph glyph-name="uni01E4" unicode="&#x1e4;" horiz-adv-x="1546" 
d="M1511 473v-124h-123q-67 -174 -223 -271.5t-366 -97.5q-311 0 -500.5 206.5t-189.5 556.5q0 176 52 321.5t143 242.5t216 150t271 53q246 0 420 -138t209 -358h-275q-37 120 -127 187t-223 67q-185 0 -300 -138t-115 -384q0 -248 115 -386t306 -138q199 0 298 127h-271
v124h331q11 45 12 96h-343v211h604v-179q0 -69 -10 -128h89z" />
    <glyph glyph-name="uni01E5" unicode="&#x1e5;" horiz-adv-x="1280" 
d="M621 -438q-202 0 -328 78t-165 200l237 57q71 -136 260 -136q119 0 189 56.5t70 171.5v212h-13q-93 -185 -321 -185q-98 0 -181 34.5t-146 101t-98.5 172t-35.5 238.5q0 134 36 243t98.5 180t146.5 109t181 38q221 0 320 -200h15v185h259v-465h218v-166h-218v-504
q0 -137 -69 -233t-185 -141.5t-270 -45.5zM623 223q109 0 175.5 69t82.5 194h-215v166h214q-18 123 -84 193.5t-173 70.5q-127 0 -196 -97t-69 -255t68.5 -249.5t196.5 -91.5z" />
    <glyph glyph-name="uni01E6" unicode="&#x1e6;" horiz-adv-x="1546" 
d="M1145 1014q-37 120 -127 187t-223 67q-185 0 -300 -138t-115 -384q0 -248 115 -386t306 -138q168 0 267.5 94t102.5 253h-343v211h604v-179q0 -189 -81.5 -330.5t-224.5 -216t-327 -74.5q-311 0 -500.5 206.5t-189.5 556.5q0 176 52 321.5t143 242.5t216 150t271 53
q246 0 420 -138t209 -358h-275zM639 1948l147 -187l148 187h230v-11l-275 -314h-205l-276 314v11h231z" />
    <glyph glyph-name="uni01E7" unicode="&#x1e7;" horiz-adv-x="1280" 
d="M621 -438q-202 0 -328 78t-165 200l237 57q71 -136 260 -136q119 0 189 56.5t70 171.5v212h-13q-93 -185 -321 -185q-98 0 -181 34.5t-146 101t-98.5 172t-35.5 238.5q0 134 36 243t98.5 180t146.5 109t181 38q221 0 320 -200h15v185h259v-1135q0 -137 -69 -233
t-185 -141.5t-270 -45.5zM623 223q125 0 194 90t69 251q0 162 -69 257t-194 95q-127 0 -196 -97t-69 -255t68.5 -249.5t196.5 -91.5zM484 1575l147 -186l148 186h230v-10l-274 -314h-206l-276 314v10h231z" />
    <glyph glyph-name="uni01E8" unicode="&#x1e8;" horiz-adv-x="1386" 
d="M147 0v1489h270v-684h18l581 684h329l-576 -668l582 -821h-325l-444 639l-165 -195v-444h-270zM547 1948l148 -187l147 187h231v-11l-275 -314h-206l-276 314v11h231z" />
    <glyph glyph-name="uni01E9" unicode="&#x1e9;" horiz-adv-x="1165" 
d="M135 0v1489h264v-821h18l401 449h308l-433 -482l458 -635h-315l-341 478l-96 -103v-375h-264zM120 1948l148 -187l147 187h231v-11l-275 -314h-206l-276 314v11h231z" />
    <glyph glyph-name="uni01EA" unicode="&#x1ea;" horiz-adv-x="1586" 
d="M1478 745q0 -300 -141.5 -496t-375.5 -250q-77 -43 -118 -84.5t-41 -94.5q0 -73 72 -73q36 0 84 20l26 -148q-77 -44 -163 -44q-95 0 -157 50t-73 142q-17 128 72 224q-249 44 -401.5 243t-152.5 511q0 177 52 322t143.5 241.5t216.5 149t272 52.5t272 -52.5t217 -149
t144 -241.5t52 -322zM1207 745q0 249 -113.5 386t-300.5 137q-186 0 -299.5 -137.5t-113.5 -385.5t113.5 -385.5t299.5 -137.5q187 0 300.5 137t113.5 386z" />
    <glyph glyph-name="uni01EB" unicode="&#x1eb;" horiz-adv-x="1245" 
d="M649 -423q-95 0 -157.5 50.5t-73.5 141.5q-17 126 72 223q-188 41 -295.5 190.5t-107.5 371.5q0 261 146 419.5t390 158.5t389.5 -158.5t145.5 -419.5q0 -212 -98.5 -358.5t-271.5 -195.5h1q-77 -43 -118 -84.5t-41 -94.5q0 -73 72 -73q33 0 83 21l27 -149
q-75 -43 -163 -43zM624 189q128 0 197.5 103t69.5 263q0 161 -69.5 264.5t-197.5 103.5q-130 0 -200 -103.5t-70 -264.5t70 -263.5t200 -102.5z" />
    <glyph glyph-name="uni01EC" unicode="&#x1ec;" horiz-adv-x="1586" 
d="M1478 745q0 -300 -141.5 -496t-375.5 -250q-77 -43 -118 -84.5t-41 -94.5q0 -73 72 -73q36 0 84 20l26 -148q-77 -44 -163 -44q-95 0 -157 50t-73 142q-17 128 72 224q-249 44 -401.5 243t-152.5 511q0 177 52 322t143.5 241.5t216.5 149t272 52.5t272 -52.5t217 -149
t144 -241.5t52 -322zM1207 745q0 249 -113.5 386t-300.5 137q-186 0 -299.5 -137.5t-113.5 -385.5t113.5 -385.5t299.5 -137.5q187 0 300.5 137t113.5 386zM1143 1862v-161h-699v161h699z" />
    <glyph glyph-name="uni01ED" unicode="&#x1ed;" horiz-adv-x="1245" 
d="M649 -423q-95 0 -157.5 50.5t-73.5 141.5q-17 126 72 223q-188 41 -295.5 190.5t-107.5 371.5q0 261 146 419.5t390 158.5t389.5 -158.5t145.5 -419.5q0 -212 -98.5 -358.5t-271.5 -195.5h1q-77 -43 -118 -84.5t-41 -94.5q0 -73 72 -73q33 0 83 21l27 -149
q-75 -43 -163 -43zM624 189q128 0 197.5 103t69.5 263q0 161 -69.5 264.5t-197.5 103.5q-130 0 -200 -103.5t-70 -264.5t70 -263.5t200 -102.5zM972 1489v-160h-699v160h699z" />
    <glyph glyph-name="uni01EE" unicode="&#x1ee;" horiz-adv-x="1402" 
d="M81 113h273q8 -127 109 -209t234 -82q105 0 183.5 58t117.5 149t39 199q0 178 -112 291.5t-292 113.5h-144v202l443 412v12h-768v230h1112v-194l-499 -467v-15q126 -9 229 -60.5t169.5 -132t102 -184t35.5 -219.5q0 -130 -44 -244.5t-123.5 -199t-196.5 -133.5t-255 -49
q-166 0 -304 65.5t-220.5 185.5t-88.5 271zM554 1948l148 -187l147 187h231v-11l-275 -314h-206l-275 314v11h230z" />
    <glyph glyph-name="uni01EF" unicode="&#x1ef;" horiz-adv-x="1324" 
d="M109 33h273q8 -93 84.5 -146.5t189.5 -53.5q121 0 197 62t76 169t-80 176t-234 69h-147v194l344 378v11h-629v225h970v-195l-400 -430v-12q213 -18 333 -139.5t120 -290.5q0 -195 -156 -319t-396 -124q-232 0 -384 116.5t-161 309.5zM513 1575l148 -186l148 186h230v-10
l-275 -314h-205l-276 314v10h230z" />
    <glyph glyph-name="uni01F0" unicode="&#x1f0;" horiz-adv-x="533" 
d="M135 1117h264v-1179q0 -179 -101 -268.5t-291 -86.5q-8 1 -25 1.5t-26 0.5v214q15 -1 38 -1q74 0 107.5 36t33.5 108v1175zM118 1575l147 -186l148 186h231v-10l-275 -314h-206l-276 314v10h231z" />
    <glyph glyph-name="uni01F1" unicode="&#x1f1;" horiz-adv-x="2820" 
d="M652 0h-505v1489h515q333 0 523 -197.5t190 -545.5q0 -349 -191.5 -547.5t-531.5 -198.5zM1603 0v168l764 1095h-768v226h1102v-168l-763 -1095h767v-226h-1102zM417 233h222q468 0 468 513q0 510 -460 510h-230v-1023z" />
    <glyph glyph-name="uni01F2" unicode="&#x1f2;" horiz-adv-x="2634" 
d="M652 0h-505v1489h515q333 0 523 -197.5t190 -545.5q0 -349 -191.5 -547.5t-531.5 -198.5zM417 233h222q468 0 468 513q0 510 -460 510h-230v-1023zM1604 0v167l576 722v10h-557v218h880v-180l-549 -709v-10h567v-218h-917z" />
    <glyph glyph-name="uni01F4" unicode="&#x1f4;" horiz-adv-x="1546" 
d="M1145 1014q-37 120 -127 187t-223 67q-185 0 -300 -138t-115 -384q0 -248 115 -386t306 -138q168 0 267.5 94t102.5 253h-343v211h604v-179q0 -189 -81.5 -330.5t-224.5 -216t-327 -74.5q-311 0 -500.5 206.5t-189.5 556.5q0 176 52 321.5t143 242.5t216 150t271 53
q246 0 420 -138t209 -358h-275zM686 1636l162 333h258l-223 -333h-197z" />
    <glyph glyph-name="uni01F5" unicode="&#x1f5;" horiz-adv-x="1280" 
d="M621 -438q-202 0 -328 78t-165 200l237 57q71 -136 260 -136q119 0 189 56.5t70 171.5v212h-13q-93 -185 -321 -185q-98 0 -181 34.5t-146 101t-98.5 172t-35.5 238.5q0 134 36 243t98.5 180t146.5 109t181 38q221 0 320 -200h15v185h259v-1135q0 -137 -69 -233
t-185 -141.5t-270 -45.5zM623 223q125 0 194 90t69 251q0 162 -69 257t-194 95q-127 0 -196 -97t-69 -255t68.5 -249.5t196.5 -91.5zM530 1264l162 332h259l-224 -332h-197z" />
    <glyph glyph-name="uni01F6" unicode="&#x1f6;" horiz-adv-x="2293" 
d="M1636 -20q-243 0 -386 134.5t-143 376.5v142h-690v-633h-270v1489h270v-630h690v630h270v-998q0 -138 67.5 -208.5t191.5 -70.5q123 0 188 70t65 209v606h270v-606q0 -244 -141 -377.5t-382 -133.5z" />
    <glyph glyph-name="uni01F7" unicode="&#x1f7;" horiz-adv-x="1452" 
d="M432 1457v-35q110 56 256 56q285 0 449.5 -163.5t165.5 -467.5v-53q-1 -324 -235 -578.5t-636 -368.5v-263h-280v1873h280zM432 79q192 65 326.5 180.5t196.5 250.5t63 284v55q0 93 -16.5 163t-53 126t-102 85t-158.5 29q-159 0 -256 -111v-1062z" />
    <glyph glyph-name="uni01F8" unicode="&#x1f8;" horiz-adv-x="1517" 
d="M1371 1489v-1489h-240l-702 1015h-12v-1015h-270v1489h241l701 -1015h14v1015h268zM860 1636h-197l-223 333h258z" />
    <glyph glyph-name="uni01F9" unicode="&#x1f9;" horiz-adv-x="1248" 
d="M399 655v-655h-264v1117h252v-190h13q39 96 125 150.5t208 54.5q176 0 280 -111.5t103 -309.5v-711h-264v671q0 112 -57.5 175t-159.5 63q-106 0 -171 -67.5t-65 -186.5zM726 1264h-197l-224 332h259z" />
    <glyph glyph-name="uni01FA" unicode="&#x1fa;" horiz-adv-x="1482" 
d="M338 0h-288l525 1489h333l525 -1489h-288l-124 367h-560zM534 584h414l-201 600h-12zM742 1567q-74 0 -127.5 51t-53.5 123q0 71 53.5 122t127.5 51q75 0 127 -50.5t52 -122.5t-52 -123t-127 -51zM647 1976l180 200h248l-260 -200h-168zM742 1671q30 0 50 20.5t20 49.5
q0 27 -20 47t-50 20q-29 0 -50 -20t-21 -47q0 -29 21 -49.5t50 -20.5z" />
    <glyph glyph-name="uni01FB" unicode="&#x1fb;" horiz-adv-x="1176" 
d="M457 -23q-166 0 -270 88t-104 248q0 73 24 129.5t62 92.5t95.5 61t114 37t128.5 20q13 1 37 4q154 16 192 31q47 19 47 65v5q0 83 -49 127.5t-140 44.5t-149.5 -40t-79.5 -102l-246 35q43 150 168.5 229.5t305.5 79.5q67 0 129 -11.5t122.5 -39.5t104.5 -70.5t71 -110
t27 -152.5v-748h-254v153h-8q-40 -77 -122.5 -126.5t-205.5 -49.5zM525 171q116 0 187.5 67t71.5 163v131q-33 -27 -241 -54q-206 -30 -206 -160q0 -71 51.5 -109t136.5 -38zM605 1195q-74 0 -127 51t-53 123q0 71 53 122t127 51q75 0 127.5 -51t52.5 -122q0 -72 -52.5 -123
t-127.5 -51zM510 1604l180 200h248l-260 -200h-168zM605 1299q30 0 50.5 20.5t20.5 49.5q0 27 -20.5 47t-50.5 20q-29 0 -50 -20t-21 -47q0 -29 21 -49.5t50 -20.5z" />
    <glyph glyph-name="uni01FC" unicode="&#x1fc;" horiz-adv-x="2082" 
d="M50 0l666 1489h1237v-226h-698v-404h648v-226h-648v-407h704v-226h-974v367h-479l-159 -367h-297zM600 584h385v645h-106zM1234 1636l162 333h259l-224 -333h-197z" />
    <glyph glyph-name="uni01FD" unicode="&#x1fd;" horiz-adv-x="1878" 
d="M1308 -22q-141 0 -250 56t-162 156h-8q-41 -94 -158.5 -153.5t-261.5 -59.5q-174 0 -279.5 88t-105.5 248q0 73 24 129.5t62 92.5t96 61t114.5 37t127.5 20h1h1h1h1l1 1h1h1h1h1h1h1h1h1l1 1h1h1h1h1h1h1h1h1l2 1q163 17 203 32q49 19 49 65v5q0 82 -49 127t-140 45
t-149.5 -40t-79.5 -102l-246 35q43 151 168.5 230t308.5 79q48 0 92.5 -7.5t90.5 -24t85.5 -48.5t65.5 -77q127 157 351 157q105 0 195.5 -34t162 -101t112 -177.5t40.5 -252.5v-80h-777q2 -142 79.5 -223t205.5 -81q86 0 148 37t88 107l246 -27q-36 -147 -163.5 -234.5
t-309.5 -87.5zM525 171q116 0 187.5 67t71.5 163v131q-33 -27 -241 -54q-206 -30 -206 -160q0 -71 51.5 -109t136.5 -38zM1015 664h524q-1 115 -72 189t-183 74q-114 0 -188.5 -76.5t-80.5 -186.5zM820 1264l163 332h258l-224 -332h-197z" />
    <glyph glyph-name="uni01FE" unicode="&#x1fe;" horiz-adv-x="1586" 
d="M329 -68l-131 90l109 158q-198 211 -198 565q0 177 52 322t143.5 241.5t216.5 149t272 52.5q205 0 363 -98l99 143l131 -90l-106 -154q198 -211 198 -566q0 -177 -52 -322t-144 -241.5t-217 -149t-272 -52.5q-204 0 -362 99zM1207 745q0 205 -82 341l-552 -800
q96 -64 220 -64q187 0 300.5 137t113.5 386zM462 404l551 800q-96 64 -220 64q-186 0 -299.5 -137.5t-113.5 -385.5q0 -205 82 -341zM693 1636l162 333h258l-223 -333h-197z" />
    <glyph glyph-name="uni01FF" unicode="&#x1ff;" horiz-adv-x="1247" 
d="M290 -68l-131 90l76 110q-148 157 -148 421q0 261 146 419t390 158q146 0 258 -59l72 106l134 -90l-78 -112q149 -158 149 -422q0 -260 -145.5 -418t-389.5 -158q-149 0 -261 59zM624 188q129 0 198 102.5t69 262.5q0 113 -35 200l-364 -529q58 -36 132 -36zM388 356
l365 530q-55 35 -129 35q-130 0 -200 -103.5t-70 -264.5q0 -113 34 -197zM521 1263l163 332h258l-223 -332h-198z" />
    <glyph glyph-name="uni0200" unicode="&#x200;" horiz-adv-x="1482" 
d="M338 0h-288l525 1489h333l525 -1489h-288l-124 367h-560zM534 584h414l-201 600h-12zM708 1637h-229l-301 265h280zM1033 1637h-218l-250 265h271z" />
    <glyph glyph-name="uni0201" unicode="&#x201;" horiz-adv-x="1176" 
d="M457 -23q-166 0 -270 88t-104 248q0 73 24 129.5t62 92.5t95.5 61t114 37t128.5 20q13 1 37 4q154 16 192 31q47 19 47 65v5q0 83 -49 127.5t-140 44.5t-149.5 -40t-79.5 -102l-246 35q43 150 168.5 229.5t305.5 79.5q67 0 129 -11.5t122.5 -39.5t104.5 -70.5t71 -110
t27 -152.5v-748h-254v153h-8q-40 -77 -122.5 -126.5t-205.5 -49.5zM525 171q116 0 187.5 67t71.5 163v131q-33 -27 -241 -54q-206 -30 -206 -160q0 -71 51.5 -109t136.5 -38zM571 1265h-228l-302 264h280zM896 1265h-218l-250 264h271z" />
    <glyph glyph-name="uni0202" unicode="&#x202;" horiz-adv-x="1482" 
d="M338 0h-288l525 1489h333l525 -1489h-288l-124 367h-560zM401 1664q-1 129 92 210.5t249 81.5q155 0 247 -81.5t93 -210.5h-198q0 59 -35 97t-107 38q-74 0 -109.5 -38.5t-34.5 -96.5h-197zM534 584h414l-201 600h-12z" />
    <glyph glyph-name="uni0203" unicode="&#x203;" horiz-adv-x="1176" 
d="M457 -23q-166 0 -270 88t-104 248q0 73 24 129.5t62 92.5t95.5 61t114 37t128.5 20q13 1 37 4q154 16 192 31q47 19 47 65v5q0 83 -49 127.5t-140 44.5t-149.5 -40t-79.5 -102l-246 35q43 150 168.5 229.5t305.5 79.5q67 0 129 -11.5t122.5 -39.5t104.5 -70.5t71 -110
t27 -152.5v-748h-254v153h-8q-40 -77 -122.5 -126.5t-205.5 -49.5zM264 1292q-1 129 92 210t249 81q155 0 247 -81t93 -210h-197q0 59 -35.5 97t-107.5 38q-74 0 -109.5 -38.5t-34.5 -96.5h-197zM525 171q116 0 187.5 67t71.5 163v131q-33 -27 -241 -54q-206 -30 -206 -160
q0 -71 51.5 -109t136.5 -38z" />
    <glyph glyph-name="uni0204" unicode="&#x204;" horiz-adv-x="1244" 
d="M147 0v1489h969v-226h-699v-404h648v-226h-648v-407h704v-226h-974zM599 1637h-229l-301 265h280zM924 1637h-219l-249 265h271z" />
    <glyph glyph-name="uni0205" unicode="&#x205;" horiz-adv-x="1213" 
d="M630 -22q-252 0 -397.5 155t-145.5 419q0 260 145 420t384 160q106 0 196.5 -34t161.5 -101t112 -177.5t41 -252.5v-80h-779q1 -142 78.5 -223t206.5 -81q86 0 148 37t89 107l246 -27q-36 -148 -165 -235t-321 -87zM349 664h525q-1 115 -71.5 189t-182.5 74
q-115 0 -190 -76t-81 -187zM575 1265h-228l-301 264h280zM900 1265h-218l-249 264h270z" />
    <glyph glyph-name="uni0206" unicode="&#x206;" horiz-adv-x="1244" 
d="M147 0v1489h969v-226h-699v-404h648v-226h-648v-407h704v-226h-974zM292 1664q-1 129 92 210.5t249 81.5q155 0 247 -81.5t93 -210.5h-198q0 59 -35 97t-107 38q-74 0 -109.5 -38.5t-34.5 -96.5h-197z" />
    <glyph glyph-name="uni0207" unicode="&#x207;" horiz-adv-x="1213" 
d="M630 -22q-252 0 -397.5 155t-145.5 419q0 260 145 420t384 160q106 0 196.5 -34t161.5 -101t112 -177.5t41 -252.5v-80h-779q1 -142 78.5 -223t206.5 -81q86 0 148 37t89 107l246 -27q-36 -148 -165 -235t-321 -87zM268 1292q-1 129 92 210t249 81q155 0 247.5 -81
t93.5 -210h-198q0 59 -35.5 97t-107.5 38q-74 0 -109.5 -38.5t-34.5 -96.5h-197zM349 664h525q-1 115 -71.5 189t-182.5 74q-115 0 -190 -76t-81 -187z" />
    <glyph glyph-name="uni0208" unicode="&#x208;" horiz-adv-x="562" 
d="M417 1489v-1489h-270v1489h270zM249 1637h-229l-301 265h280zM574 1637h-218l-250 265h271z" />
    <glyph glyph-name="uni0209" unicode="&#x209;" horiz-adv-x="533" 
d="M135 0v1117h264v-1117h-264zM234 1265h-228l-301 264h280zM559 1265h-218l-249 264h270z" />
    <glyph glyph-name="uni020A" unicode="&#x20a;" horiz-adv-x="562" 
d="M417 1489v-1489h-270v1489h270zM-58 1664q-1 129 92 210.5t249 81.5q155 0 247 -81.5t93 -210.5h-198q0 59 -35 97t-107 38q-74 0 -109.5 -38.5t-34.5 -96.5h-197z" />
    <glyph glyph-name="uni020B" unicode="&#x20b;" horiz-adv-x="533" 
d="M135 0v1117h264v-1117h-264zM-73 1292q-1 129 92 210t249 81q155 0 247.5 -81t93.5 -210h-198q0 59 -35.5 97t-107.5 38q-74 0 -109.5 -38.5t-34.5 -96.5h-197z" />
    <glyph glyph-name="uni020C" unicode="&#x20c;" horiz-adv-x="1586" 
d="M1478 745q0 -177 -52 -322t-144 -241.5t-217 -149t-272 -52.5t-272 52.5t-216.5 149t-143.5 241.5t-52 322t52 322t143.5 241.5t216.5 149t272 52.5t272 -52.5t217 -149t144 -241.5t52 -322zM1207 745q0 249 -113.5 386t-300.5 137q-186 0 -299.5 -137.5t-113.5 -385.5
t113.5 -385.5t299.5 -137.5q187 0 300.5 137t113.5 386zM760 1637h-228l-301 265h280zM1085 1637h-218l-250 265h271z" />
    <glyph glyph-name="uni020D" unicode="&#x20d;" horiz-adv-x="1245" 
d="M623 -22q-244 0 -390 158t-146 418q0 261 146 419.5t390 158.5t389.5 -158.5t145.5 -419.5q0 -260 -145.5 -418t-389.5 -158zM624 189q128 0 197.5 103t69.5 263q0 161 -69.5 264.5t-197.5 103.5q-130 0 -200 -103.5t-70 -264.5t70 -263.5t200 -102.5zM589 1265h-228
l-301 264h280zM914 1265h-218l-249 264h270z" />
    <glyph glyph-name="uni020E" unicode="&#x20e;" horiz-adv-x="1586" 
d="M1478 745q0 -177 -52 -322t-144 -241.5t-217 -149t-272 -52.5t-272 52.5t-216.5 149t-143.5 241.5t-52 322t52 322t143.5 241.5t216.5 149t272 52.5t272 -52.5t217 -149t144 -241.5t52 -322zM1207 745q0 249 -113.5 386t-300.5 137q-186 0 -299.5 -137.5t-113.5 -385.5
t113.5 -385.5t299.5 -137.5q187 0 300.5 137t113.5 386zM453 1664q-1 129 92 210.5t249 81.5q155 0 247.5 -81.5t93.5 -210.5h-198q0 59 -35.5 97t-107.5 38q-74 0 -109.5 -38.5t-34.5 -96.5h-197z" />
    <glyph glyph-name="uni020F" unicode="&#x20f;" horiz-adv-x="1245" 
d="M623 -22q-244 0 -390 158t-146 418q0 261 146 419.5t390 158.5t389.5 -158.5t145.5 -419.5q0 -260 -145.5 -418t-389.5 -158zM624 189q128 0 197.5 103t69.5 263q0 161 -69.5 264.5t-197.5 103.5q-130 0 -200 -103.5t-70 -264.5t70 -263.5t200 -102.5zM282 1292
q-1 129 92 210t249 81q155 0 247.5 -81t93.5 -210h-198q0 59 -35.5 97t-107.5 38q-74 0 -109.5 -38.5t-34.5 -96.5h-197z" />
    <glyph glyph-name="uni0210" unicode="&#x210;" horiz-adv-x="1332" 
d="M147 0v1489h558q251 0 388.5 -129t137.5 -347q0 -152 -68.5 -260.5t-199.5 -161.5l322 -591h-301l-292 545h-275v-545h-270zM417 769h248q291 0 291 244q0 251 -292 251h-247v-495zM624 1637h-228l-301 265h280zM949 1637h-218l-250 265h271z" />
    <glyph glyph-name="uni0211" unicode="&#x211;" horiz-adv-x="847" 
d="M135 0v1117h256v-186h11q30 96 104 149t172 53q86 0 150 -41l-82 -218q-50 23 -104 23q-104 0 -173.5 -67.5t-69.5 -172.5v-657h-264zM414 1265h-229l-301 264h280zM739 1265h-218l-250 264h271z" />
    <glyph glyph-name="uni0212" unicode="&#x212;" horiz-adv-x="1332" 
d="M147 0v1489h558q251 0 388.5 -129t137.5 -347q0 -152 -68.5 -260.5t-199.5 -161.5l322 -591h-301l-292 545h-275v-545h-270zM417 769h248q291 0 291 244q0 251 -292 251h-247v-495zM317 1664q-1 129 92 210.5t249 81.5q155 0 247.5 -81.5t93.5 -210.5h-198q0 59 -35.5 97
t-107.5 38q-74 0 -109.5 -38.5t-34.5 -96.5h-197z" />
    <glyph glyph-name="uni0213" unicode="&#x213;" horiz-adv-x="847" 
d="M135 0v1117h256v-186h11q30 96 104 149t172 53q86 0 150 -41l-82 -218q-50 23 -104 23q-104 0 -173.5 -67.5t-69.5 -172.5v-657h-264zM128 1292q-1 129 92 210t249 81q155 0 247 -81t93 -210h-197q0 59 -35.5 97t-107.5 38q-74 0 -109.5 -38.5t-34.5 -96.5h-197z" />
    <glyph glyph-name="uni0214" unicode="&#x214;" horiz-adv-x="1502" 
d="M1087 1489h269v-984q0 -164 -80 -285.5t-216 -182t-309 -60.5q-174 0 -309.5 61t-215 182t-79.5 285v984h270v-978q0 -134 94.5 -212.5t239.5 -78.5t240.5 78.5t95.5 212.5v978zM718 1637h-229l-301 265h280zM1043 1637h-218l-250 265h271z" />
    <glyph glyph-name="uni0215" unicode="&#x215;" horiz-adv-x="1245" 
d="M847 470v647h264v-1117h-256v199h-11q-40 -97 -127.5 -155.5t-208.5 -58.5q-168 0 -270.5 111.5t-102.5 309.5v711h264v-670q0 -106 57 -169t153 -63q95 0 166.5 67.5t71.5 187.5zM591 1265h-229l-301 264h280zM916 1265h-219l-249 264h271z" />
    <glyph glyph-name="uni0216" unicode="&#x216;" horiz-adv-x="1502" 
d="M1087 1489h269v-984q0 -164 -80 -285.5t-216 -182t-309 -60.5q-174 0 -309.5 61t-215 182t-79.5 285v984h270v-978q0 -134 94.5 -212.5t239.5 -78.5t240.5 78.5t95.5 212.5v978zM411 1664q-1 129 92 210.5t249 81.5q155 0 247 -81.5t93 -210.5h-197q0 59 -35.5 97
t-107.5 38q-74 0 -109.5 -38.5t-34.5 -96.5h-197z" />
    <glyph glyph-name="uni0217" unicode="&#x217;" horiz-adv-x="1245" 
d="M847 470v647h264v-1117h-256v199h-11q-40 -97 -127.5 -155.5t-208.5 -58.5q-168 0 -270.5 111.5t-102.5 309.5v711h264v-670q0 -106 57 -169t153 -63q95 0 166.5 67.5t71.5 187.5zM284 1292q-1 129 92 210t249 81q155 0 247.5 -81t93.5 -210h-198q0 59 -35.5 97
t-107.5 38q-74 0 -109.5 -38.5t-34.5 -96.5h-197z" />
    <glyph glyph-name="uni0218" unicode="&#x218;" horiz-adv-x="1329" 
d="M956 1080q-10 95 -84.5 148t-195.5 53q-124 0 -196.5 -54t-73.5 -140q0 -44 21 -79.5t60.5 -59t79.5 -39t92 -27.5l140 -35q90 -21 163.5 -54t137.5 -83t100 -124.5t36 -167.5q-1 -200 -151 -320.5t-414 -120.5q-262 0 -416 121.5t-162 341.5h266q8 -113 93 -172.5
t217 -59.5t214.5 58.5t83.5 153.5q-1 81 -67.5 127t-200.5 80l-170 44q-397 102 -397 400q0 129 71 229.5t195.5 155t280.5 54.5q236 0 384.5 -120t152.5 -310h-260zM776 -104v-133q-2 -253 -133 -407l-158 59q41 89 62.5 166t20.5 170v145h208z" />
    <glyph glyph-name="uni0219" unicode="&#x219;" horiz-adv-x="1124" 
d="M1018 822l-240 -26q-16 60 -68.5 99.5t-137.5 39.5q-83 0 -138 -36t-54 -92q-1 -49 36 -79.5t121 -49.5l191 -41q159 -35 236 -109t78 -193q-1 -159 -134 -258t-343 -99q-204 0 -329 86t-150 241l257 24q35 -152 221 -152q93 0 150.5 38t57.5 96q0 94 -150 127l-191 40
q-316 65 -314 315q-1 154 124 246.5t328 92.5q192 0 306.5 -82.5t142.5 -227.5zM677 -88v-133q-2 -253 -133 -407l-158 59q41 89 62.5 166t20.5 170v145h208z" />
    <glyph glyph-name="uni021A" unicode="&#x21a;" horiz-adv-x="1351" 
d="M81 1263v226h1189v-226h-461v-1263h-267v1263h-461zM782 -88v-133q-2 -253 -133 -407l-158 59q41 89 62.5 166t20.5 170v145h208z" />
    <glyph glyph-name="uni021B" unicode="&#x21b;" horiz-adv-x="778" 
d="M693 1117v-204h-220v-577q0 -74 31.5 -101.5t87.5 -27.5q40 0 77 10l44 -206q-74 -24 -154 -26q-155 -5 -253 75t-97 232v621h-158v204h158v268h264v-268h220zM511 -88v-133q-2 -253 -133 -407l-158 59q41 89 62.5 166t20.5 170v145h208z" />
    <glyph glyph-name="uni021C" unicode="&#x21c;" horiz-adv-x="1345" 
d="M231 310v209q155 46 262 86t192 85.5t134 96t74 111.5t25 138q0 98 -65.5 156.5t-200.5 58.5q-101 0 -172 -51t-71 -135h-280q0 125 73.5 220.5t191 143t258.5 47.5q252 0 398 -107t146 -307q0 -219 -165 -382q187 -103 187 -341q0 -134 -48.5 -247t-134.5 -197
t-211 -150t-271 -109.5t-322 -71.5v222q351 69 528.5 203.5t177.5 354.5q0 153 -80 202q-230 -139 -626 -236z" />
    <glyph glyph-name="uni021D" unicode="&#x21d;" horiz-adv-x="1155" 
d="M237 173v196q91 27 162 54t137 62t109 74t69 89.5t26 107.5q-1 63 -39 102t-124 39q-79 0 -130 -34.5t-50 -90.5h-270q0 150 126 240.5t312 90.5q207 0 325.5 -82.5t119.5 -235.5q0 -173 -132 -308q152 -91 153 -289q-1 -486 -794 -624v202q108 33 185 62.5t144 67.5
t107 81.5t63 99.5t23 125q-1 94 -43 151q-182 -106 -479 -180z" />
    <glyph glyph-name="uni021E" unicode="&#x21e;" horiz-adv-x="1523" 
d="M147 0v1489h270v-630h690v630h270v-1489h-270v633h-690v-633h-270zM618 1949l148 -186l147 186h231v-10l-275 -314h-206l-275 314v10h230z" />
    <glyph glyph-name="uni021F" unicode="&#x21f;" horiz-adv-x="1255" 
d="M399 655v-655h-264v1489h258v-562h13q84 205 332 205q177 0 281 -110.5t104 -310.5v-711h-263v671q0 113 -58 175.5t-162 62.5q-108 0 -174.5 -67.5t-66.5 -186.5zM118 1948l147 -187l148 187h231v-11l-275 -314h-206l-276 314v11h231z" />
    <glyph glyph-name="uni0220" unicode="&#x220;" horiz-adv-x="1347" 
d="M1218 -416h-273v1430q0 246 -264 246q-150 0 -279 -80v-1180h-270v1457h270v-56q141 77 302 77q106 0 198.5 -30.5t163 -88t111.5 -146.5t41 -199v-1430z" />
    <glyph glyph-name="uni0221" unicode="&#x221;" horiz-adv-x="1470" 
d="M552 -20q-203 0 -331.5 154t-128.5 423q0 270 130 422.5t331 152.5q220 0 319 -200h11v557h264v-1381q55 11 107 11q158 0 251.5 -76t93.5 -201q0 -120 -90 -190.5t-254 -70.5q-242 0 -331 162l-165 -144l-127 161l248 217v199h-8q-99 -196 -320 -196zM625 196
q124 0 193.5 99t69.5 264t-69 261t-194 96q-128 0 -196.5 -98t-68.5 -259q0 -162 69 -262.5t196 -100.5zM1145 -84v-37q0 -60 33 -92.5t82 -32.5q45 0 73 26t28 67t-26.5 67.5t-77.5 29.5q-49 4 -112 -28z" />
    <glyph glyph-name="uni0222" unicode="&#x222;" horiz-adv-x="1346" 
d="M657 937h32q133 0 205.5 39.5t72.5 134.5q0 67 -34.5 100.5t-108.5 51.5v215q193 -3 310 -95.5t117 -271.5q0 -202 -183 -300q180 -120 181 -355q0 -115 -43 -206t-119 -149.5t-178.5 -89.5t-223.5 -31h-22q-251 0 -408.5 124t-157.5 349q0 236 182 358q-182 98 -182 300
q0 179 117 271.5t310 95.5v-215q-75 -18 -109 -51t-34 -101q0 -94 71 -134t205 -40zM685 708h-22q-132 0 -207 -66.5t-75 -188.5q0 -119 74.5 -183.5t207.5 -64.5h22q133 0 206.5 64.5t73.5 186.5q0 120 -74 186t-206 66z" />
    <glyph glyph-name="uni0223" unicode="&#x223;" horiz-adv-x="1345" 
d="M688 919q136 0 210.5 51t74.5 170q0 86 -38 135.5t-112 75.5v205q187 -3 303 -110.5t116 -302.5q0 -232 -182 -337q182 -118 182 -354q0 -152 -73 -260t-197.5 -160t-287.5 -52h-22q-163 0 -287.5 51.5t-198 159t-73.5 258.5q0 239 183 357q-183 106 -183 337
q0 194 115.5 302t303.5 111v-205q-72 -26 -109.5 -75.5t-37.5 -135.5q0 -120 74 -170.5t208 -50.5h31zM684 703h-22q-134 0 -210.5 -66.5t-76.5 -187.5q0 -120 76.5 -186.5t210.5 -66.5h22q134 0 210 67t76 189q0 119 -76 185t-210 66z" />
    <glyph glyph-name="uni0224" unicode="&#x224;" horiz-adv-x="1336" 
d="M869 0h-750v168l768 1095h-772v226h1102v-168l-768 -1095h420q175 0 273.5 -95t98.5 -258v-117h-227v69q0 175 -145 175z" />
    <glyph glyph-name="uni0225" unicode="&#x225;" horiz-adv-x="1144" 
d="M847 -258v67q0 191 -148 191h-577v170l566 730h-560v217h889v-166l-564 -734h246q176 0 273.5 -95.5t97.5 -258.5v-121h-223z" />
    <glyph glyph-name="uni0226" unicode="&#x226;" horiz-adv-x="1482" 
d="M338 0h-288l525 1489h333l525 -1489h-288l-124 367h-560zM534 584h414l-201 600h-12zM742 1648q-63 0 -108 42t-45 101t45 101t108 42t107.5 -42t44.5 -101t-44.5 -101t-107.5 -42z" />
    <glyph glyph-name="uni0227" unicode="&#x227;" horiz-adv-x="1176" 
d="M457 -23q-166 0 -270 88t-104 248q0 73 24 129.5t62 92.5t95.5 61t114 37t128.5 20q13 1 37 4q154 16 192 31q47 19 47 65v5q0 83 -49 127.5t-140 44.5t-149.5 -40t-79.5 -102l-246 35q43 150 168.5 229.5t305.5 79.5q67 0 129 -11.5t122.5 -39.5t104.5 -70.5t71 -110
t27 -152.5v-748h-254v153h-8q-40 -77 -122.5 -126.5t-205.5 -49.5zM525 171q116 0 187.5 67t71.5 163v131q-33 -27 -241 -54q-206 -30 -206 -160q0 -71 51.5 -109t136.5 -38zM605 1276q-63 0 -108 41.5t-45 100.5t45 101t108 42t107.5 -42t44.5 -101t-44.5 -100.5
t-107.5 -41.5z" />
    <glyph glyph-name="uni0228" unicode="&#x228;" horiz-adv-x="1244" 
d="M147 0v1489h969v-226h-699v-404h648v-226h-648v-407h704v-226h-427l-10 -56q73 -11 118 -55t45 -120q1 -104 -93.5 -166.5t-264.5 -62.5l-2 130q182 0 183 92q1 45 -34.5 67.5t-114.5 30.5l30 140h-404z" />
    <glyph glyph-name="uni0229" unicode="&#x229;" horiz-adv-x="1213" 
d="M677 -20l-6 -36q73 -11 118 -55t45 -120q1 -104 -93.5 -166.5t-264.5 -62.5l-3 130q183 0 184 92q1 45 -34.5 67.5t-114.5 30.5l27 125q-211 29 -329.5 179.5t-118.5 387.5q0 260 145 420t384 160q106 0 196.5 -34t161.5 -101t112 -177.5t41 -252.5v-80h-779
q1 -142 78.5 -223t206.5 -81q86 0 148 37t89 107l246 -27q-33 -138 -148.5 -223.5t-290.5 -96.5zM349 664h525q-1 115 -71.5 189t-182.5 74q-115 0 -190 -76t-81 -187z" />
    <glyph glyph-name="uni022A" unicode="&#x22a;" horiz-adv-x="1586" 
d="M1478 745q0 -177 -52 -322t-144 -241.5t-217 -149t-272 -52.5t-272 52.5t-216.5 149t-143.5 241.5t-52 322t52 322t143.5 241.5t216.5 149t272 52.5t272 -52.5t217 -149t144 -241.5t52 -322zM1207 745q0 249 -113.5 386t-300.5 137q-186 0 -299.5 -137.5t-113.5 -385.5
t113.5 -385.5t299.5 -137.5q187 0 300.5 137t113.5 386zM1143 2234v-161h-699v161h699zM575 1654q-57 0 -99 41t-42 96q0 58 41.5 97.5t99.5 39.5q59 0 99.5 -39.5t40.5 -97.5q0 -55 -40.5 -96t-99.5 -41zM1012 1654q-57 0 -99 41t-42 96q0 58 41.5 97.5t99.5 39.5
q59 0 99 -39.5t40 -97.5q0 -56 -40.5 -96.5t-98.5 -40.5z" />
    <glyph glyph-name="uni022B" unicode="&#x22b;" horiz-adv-x="1245" 
d="M623 -22q-244 0 -390 158t-146 418q0 261 146 419.5t390 158.5t389.5 -158.5t145.5 -419.5q0 -260 -145.5 -418t-389.5 -158zM624 189q128 0 197.5 103t69.5 263q0 161 -69.5 264.5t-197.5 103.5q-130 0 -200 -103.5t-70 -264.5t70 -263.5t200 -102.5zM972 1862v-161
h-699v161h699zM404 1281q-57 0 -99 41t-42 96q0 58 41.5 98t99.5 40q59 0 99.5 -40t40.5 -98q0 -56 -41 -96.5t-99 -40.5zM841 1281q-57 0 -99 41t-42 96q0 58 41.5 98t99.5 40q59 0 99 -39.5t40 -98.5q0 -56 -40.5 -96.5t-98.5 -40.5z" />
    <glyph glyph-name="uni022C" unicode="&#x22c;" horiz-adv-x="1586" 
d="M1478 745q0 -177 -52 -322t-144 -241.5t-217 -149t-272 -52.5t-272 52.5t-216.5 149t-143.5 241.5t-52 322t52 322t143.5 241.5t216.5 149t272 52.5t272 -52.5t217 -149t144 -241.5t52 -322zM1207 745q0 249 -113.5 386t-300.5 137q-186 0 -299.5 -137.5t-113.5 -385.5
t113.5 -385.5t299.5 -137.5q187 0 300.5 137t113.5 386zM1145 2125v-164h-703v164h703zM975 1863l114 -32q0 -74 -49 -128t-121 -54q-57 0 -125 35t-110 35q-29 0 -50 -26.5t-20 -61.5l-114 32q0 73 47.5 128t118.5 55q46 0 120 -34t116 -34q30 0 51.5 24.5t21.5 60.5z" />
    <glyph glyph-name="uni022D" unicode="&#x22d;" horiz-adv-x="1245" 
d="M623 -22q-244 0 -390 158t-146 418q0 261 146 419.5t390 158.5t389.5 -158.5t145.5 -419.5q0 -260 -145.5 -418t-389.5 -158zM624 189q128 0 197.5 103t69.5 263q0 161 -69.5 264.5t-197.5 103.5q-130 0 -200 -103.5t-70 -264.5t70 -263.5t200 -102.5zM840 1542l163 -11
q1 -111 -65.5 -186.5t-165.5 -75.5q-55 0 -101.5 22t-89 44t-87.5 22q-37 0 -62.5 -27.5t-25.5 -71.5l-162 8q1 109 66.5 186.5t162.5 77.5q55 0 140.5 -43.5t136.5 -43.5q38 0 64.5 27.5t25.5 71.5zM977 1820v-164h-701v164h701z" />
    <glyph glyph-name="uni022E" unicode="&#x22e;" horiz-adv-x="1586" 
d="M1478 745q0 -177 -52 -322t-144 -241.5t-217 -149t-272 -52.5t-272 52.5t-216.5 149t-143.5 241.5t-52 322t52 322t143.5 241.5t216.5 149t272 52.5t272 -52.5t217 -149t144 -241.5t52 -322zM1207 745q0 249 -113.5 386t-300.5 137q-186 0 -299.5 -137.5t-113.5 -385.5
t113.5 -385.5t299.5 -137.5q187 0 300.5 137t113.5 386zM794 1648q-63 0 -108 42t-45 101t45 101t108 42t107.5 -42t44.5 -101t-44.5 -101t-107.5 -42z" />
    <glyph glyph-name="uni022F" unicode="&#x22f;" horiz-adv-x="1245" 
d="M623 -22q-244 0 -390 158t-146 418q0 261 146 419.5t390 158.5t389.5 -158.5t145.5 -419.5q0 -260 -145.5 -418t-389.5 -158zM624 189q128 0 197.5 103t69.5 263q0 161 -69.5 264.5t-197.5 103.5q-130 0 -200 -103.5t-70 -264.5t70 -263.5t200 -102.5zM623 1276
q-63 0 -108 41.5t-45 100.5t45 101t108 42t107.5 -42t44.5 -101t-44.5 -100.5t-107.5 -41.5z" />
    <glyph glyph-name="uni0230" unicode="&#x230;" horiz-adv-x="1586" 
d="M1478 745q0 -177 -52 -322t-144 -241.5t-217 -149t-272 -52.5t-272 52.5t-216.5 149t-143.5 241.5t-52 322t52 322t143.5 241.5t216.5 149t272 52.5t272 -52.5t217 -149t144 -241.5t52 -322zM1207 745q0 249 -113.5 386t-300.5 137q-186 0 -299.5 -137.5t-113.5 -385.5
t113.5 -385.5t299.5 -137.5q187 0 300.5 137t113.5 386zM1142 2161v-145h-700v145h700zM793 1637q-63 0 -107.5 38.5t-44.5 92.5q0 55 44.5 93.5t107.5 38.5t107.5 -38.5t44.5 -93.5q0 -54 -44.5 -92.5t-107.5 -38.5z" />
    <glyph glyph-name="uni0231" unicode="&#x231;" horiz-adv-x="1245" 
d="M623 -22q-244 0 -390 158t-146 418q0 261 146 419.5t390 158.5t389.5 -158.5t145.5 -419.5q0 -260 -145.5 -418t-389.5 -158zM624 189q128 0 197.5 103t69.5 263q0 161 -69.5 264.5t-197.5 103.5q-130 0 -200 -103.5t-70 -264.5t70 -263.5t200 -102.5zM973 1747v-145
h-700v145h700zM625 1223q-63 0 -108 38.5t-45 92.5q0 55 45 93.5t108 38.5t107.5 -38.5t44.5 -93.5q0 -54 -44.5 -92.5t-107.5 -38.5z" />
    <glyph glyph-name="uni0232" unicode="&#x232;" horiz-adv-x="1442" 
d="M45 1489h305l364 -658h15l364 658h305l-542 -933v-556h-269v556zM1071 1862v-161h-699v161h699z" />
    <glyph glyph-name="uni0233" unicode="&#x233;" horiz-adv-x="1179" 
d="M289 -435q-90 0 -165 30l61 211q58 -16 102.5 -16.5t79 27.5t58.5 88l27 72l-405 1140h279l257 -844h12l258 844h280l-451 -1262q-49 -138 -147 -214t-246 -76zM939 1489v-160h-700v160h700z" />
    <glyph glyph-name="uni0234" unicode="&#x234;" horiz-adv-x="809" 
d="M387 1489v-1363q69 21 132 21q129 0 212 -79t84 -197q-1 -121 -88 -205.5t-229 -84.5q-108 0 -196 50.5t-135 140.5l-165 -149l-138 154l184 168q39 30 76 55v1489h263zM387 -68v-43q-1 -52 30 -84.5t83 -32.5q39 0 64 26.5t26 66.5q-1 37 -27.5 62.5t-70.5 25.5
q-56 0 -105 -21z" />
    <glyph glyph-name="uni0235" unicode="&#x235;" horiz-adv-x="1616" 
d="M399 655v-655h-264v1117h252v-190h13q39 96 125 150.5t208 54.5q176 0 280 -111.5t103 -309.5v-433q46 7 120 7q133 0 220.5 -80t87.5 -206q1 -129 -92.5 -209.5t-250.5 -80.5q-119 0 -204 52t-121 144l-126 -138l-140 130l184 196q39 43 58 59v519q0 112 -57.5 175
t-159.5 63q-106 0 -171 -67.5t-65 -186.5zM1116 12q0 -44 32 -74t77 -30q42 0 68 28t26 73t-29 70t-76 26q-44 0 -98 -18v-75z" />
    <glyph glyph-name="uni0236" unicode="&#x236;" horiz-adv-x="1053" 
d="M287 1385h263v-268h219v-204h-219v-390q69 20 132 20q139 0 219.5 -76.5t80.5 -195.5q0 -123 -85 -208.5t-250 -85.5q-111 0 -195.5 45t-127.5 131q-61 -55 -145 -143l-128 151q125 132 236 219v533h-159v204h159v268zM550 319v-48q0 -44 31.5 -74t79.5 -30q41 0 68 25
t27 69q0 39 -24.5 63t-76.5 24q-44 0 -105 -29z" />
    <glyph glyph-name="uni0237" unicode="&#x237;" horiz-adv-x="533" 
d="M135 1117h264v-1179q0 -179 -101 -268.5t-291 -86.5q-8 1 -25 1.5t-26 0.5v214q15 -1 38 -1q74 0 107.5 36t33.5 108v1175z" />
    <glyph glyph-name="uni0238" unicode="&#x238;" horiz-adv-x="1915" 
d="M1804 551v-20q0 -248 -111.5 -399.5t-317.5 -151.5q-174 0 -281 120v-100h-246l-13 113q-109 -133 -290 -133q-197 0 -314.5 154t-117.5 395v21q0 249 117 401t318 152q168 0 274 -119v552h272v-554q107 121 278 121q209 0 320.5 -151t111.5 -401zM1535 531v20
q0 333 -232 333q-148 0 -209 -124v-434q62 -128 212 -128q229 0 229 333zM385 550v-21q0 -94 21 -165.5t74 -118t134 -46.5q144 0 208 125v440q-62 120 -207 120q-118 0 -174 -91.5t-56 -242.5z" />
    <glyph glyph-name="uni0239" unicode="&#x239;" horiz-adv-x="1915" 
d="M822 -416v508q-106 -112 -274 -112q-202 0 -318.5 154t-116.5 397v20q0 250 115 401t321 151q180 0 288 -129l15 108h221l11 -107q109 128 288 128q207 0 318.5 -149t111.5 -401v-22q0 -243 -113 -397t-314 -154q-173 0 -281 117v-513h-272zM1532 531v22q0 96 -23 168.5
t-77 117.5t-135 45q-142 0 -203 -114v-457q64 -117 206 -117q61 0 107 26.5t72.5 74t39.5 106t13 128.5zM385 551v-20q0 -67 12 -124.5t38 -106t72.5 -76.5t109.5 -28q141 0 205 117v464q-63 110 -203 110q-80 0 -134 -46t-77 -119.5t-23 -170.5z" />
    <glyph glyph-name="uni023A" unicode="&#x23a;" horiz-adv-x="1482" 
d="M1215 1679l-182 -544l400 -1135h-288l-124 367h-244l-186 -556h-182l185 556h-133l-123 -367h-288l525 1489h333l31 -89l93 279h183zM667 584l140 421l-60 179h-12l-201 -600h133zM898 732l-49 -148h99z" />
    <glyph glyph-name="uni023B" unicode="&#x23b;" horiz-adv-x="1522" 
d="M364 -189l85 254q-160 91 -250 266t-90 414q0 177 52 322t143 241.5t216 149t271 52.5q70 0 136 -12l61 181h182l-77 -232q134 -62 220 -180t109 -280h-272q-25 144 -138 219l-324 -971q48 -13 107 -13q136 0 233 72t122 201l272 -2q-15 -107 -66.5 -200t-131 -163
t-191.5 -110t-242 -40q-101 0 -181 21l-64 -190h-182zM533 317l316 948q-25 3 -53 3q-187 0 -301.5 -138t-114.5 -385q0 -288 153 -428z" />
    <glyph glyph-name="uni023C" unicode="&#x23c;" horiz-adv-x="1185" 
d="M1031 1489l-151 -416q97 -51 154.5 -139.5t66.5 -203.5h-252q-12 69 -52 114l-233 -645q30 -6 61 -6q88 0 147.5 50t76.5 139h252q-15 -181 -143 -292.5t-335 -111.5q-70 0 -134 14l-149 -411h-165l168 466q-123 71 -189.5 203t-66.5 304q0 258 145.5 418t388.5 160
q52 0 112 -10l133 367h165zM659 917q-22 2 -34 2q-123 0 -197 -96.5t-74 -263.5q0 -173 77 -272z" />
    <glyph glyph-name="uni023D" unicode="&#x23d;" horiz-adv-x="1159" 
d="M147 0v697h-215v166h215v626h270v-626h212v-166h-212v-471h656v-226h-926z" />
    <glyph glyph-name="uni023E" unicode="&#x23e;" horiz-adv-x="1351" 
d="M295 -189l247 738v714h-461v226h775l63 190h182l-63 -190h232v-226h-308l-153 -459v-804h-267v3l-64 -192h-183z" />
    <glyph glyph-name="uni023F" unicode="&#x23f;" horiz-adv-x="1126" 
d="M1018 822l-240 -26q-16 60 -68.5 99.5t-137.5 39.5q-83 0 -138 -36t-54 -92q-1 -49 36 -79.5t121 -49.5l191 -41q159 -35 236 -109t78 -193q-1 -159 -134 -258t-343 -99q-56 0 -92 5q73 -130 113 -171t87 -41q79 0 171 76l84 -146q-136 -120 -262 -120q-59 0 -109.5 20
t-92 59t-72.5 81.5t-66 103.5l-171 295q-54 70 -69 165l257 24q35 -152 221 -152q93 0 150.5 38t57.5 96q0 94 -150 127l-191 40q-316 65 -314 315q-1 154 124 246.5t328 92.5q192 0 306.5 -82.5t142.5 -227.5z" />
    <glyph glyph-name="uni0240" unicode="&#x240;" horiz-adv-x="1232" 
d="M453 217h28q73 0 135.5 -22.5t105 -59t79 -80.5t65.5 -88t56.5 -80.5t59.5 -59t67 -22.5q74 0 152 69l91 -173q-126 -120 -265 -120q-61 0 -112 23t-87.5 60t-69.5 81.5t-66 89.5t-69.5 82t-87 60t-110.5 23h-303v170l566 730h-560v217h889v-166z" />
    <glyph glyph-name="uni0241" unicode="&#x241;" horiz-adv-x="1154" 
d="M469 493h87q67 0 113.5 24.5t71 70t35 98.5t10.5 121v122q-2 318 -230 318q-94 0 -147.5 -55.5t-56.5 -144.5h-267q3 191 134 311t333 120q164 0 283 -75t176.5 -197.5t57.5 -276.5v-122q0 -194 -93.5 -336t-267.5 -188v-283h-282v493h43z" />
    <glyph glyph-name="uni0242" unicode="&#x242;" horiz-adv-x="1155" 
d="M132 693q0 179 121.5 294.5t315.5 115.5q223 0 338.5 -113t115.5 -303q0 -146 -77.5 -238.5t-224.5 -117.5v-331h-272v476h107q197 0 197 209q0 202 -184 202q-74 0 -119.5 -53.5t-45.5 -140.5h-272z" />
    <glyph glyph-name="uni0243" unicode="&#x243;" horiz-adv-x="1470" 
d="M271 0v360h-219v167h219v962h570q234 0 358.5 -106.5t124.5 -279.5q0 -129 -72.5 -209.5t-188.5 -107.5v-14q128 -6 223.5 -106t95.5 -260q0 -182 -131 -294t-378 -112h-602zM540 856h267q107 0 177 58t70 154q0 89 -62.5 144t-178.5 55h-273v-411zM540 225h291
q141 0 209 54t68 148q0 102 -73.5 168.5t-196.5 66.5h-298v-135h208v-167h-208v-135z" />
    <glyph glyph-name="uni0244" unicode="&#x244;" horiz-adv-x="1544" 
d="M1552 852v-160h-172v-187q0 -164 -79.5 -285t-215.5 -182t-309 -61q-174 0 -309.5 61t-215 182t-79.5 285v187h-180v160h180v637h269v-637h670v637h269v-637h172zM1111 692h-670v-181q0 -134 95 -212.5t240 -78.5t240 78.5t95 212.5v181z" />
    <glyph glyph-name="uni0245" unicode="&#x245;" horiz-adv-x="1533" 
d="M1124 0l-358 1116l-355 -1116h-311l525 1457h282l527 -1457h-310z" />
    <glyph glyph-name="uni0246" unicode="&#x246;" horiz-adv-x="1244" 
d="M1027 1679l-55 -190h144v-226h-209l-116 -404h274v-226h-339l-117 -407h512v-226h-578l-54 -189h-166l54 189h-230v1489h660l54 190h166zM741 1263h-324v-404h208zM560 633h-143v-407h26z" />
    <glyph glyph-name="uni0247" unicode="&#x247;" horiz-adv-x="1218" 
d="M1031 1489l-152 -421q116 -65 182 -190.5t66 -310.5v-80h-459l-107 -296q46 -8 72 -8q86 0 148 37t89 107l246 -27q-36 -148 -165 -235t-321 -87q-68 0 -141 15l-149 -412h-165l168 466q-123 69 -189.5 199t-66.5 306q0 260 145 420t384 160q56 0 116 -11l134 368h165z
M567 664l94 260q-20 3 -41 3q-115 0 -190 -76t-81 -187h218zM503 487h-155q1 -138 75 -219zM801 855l-69 -191h142q-2 116 -73 191z" />
    <glyph glyph-name="uni0248" unicode="&#x248;" horiz-adv-x="1148" 
d="M735 1489h267v-517h213v-167h-213v-363q-1 -214 -132.5 -338t-348.5 -124q-204 0 -332.5 108.5t-128.5 307.5h268q1 -90 57 -142.5t147 -52.5q97 0 149.5 62t53.5 179v363h-217v167h217v517z" />
    <glyph glyph-name="uni0249" unicode="&#x249;" horiz-adv-x="533" 
d="M135 1117h264v-366h215v-167h-215v-646q0 -179 -101 -268.5t-291 -86.5q-8 1 -25 1.5t-26 0.5v214q15 -1 38 -1q74 0 107.5 36t33.5 108v642h-218v167h218v366zM266 1276q-63 0 -108 41.5t-45 100.5t45 101t108 42t107.5 -42t44.5 -101t-44.5 -100.5t-107.5 -41.5z" />
    <glyph glyph-name="uni024A" unicode="&#x24a;" horiz-adv-x="1664" 
d="M1437 1489v-1575q0 -123 159 -123q25 0 69 6v-206q-47 -10 -140 -10q-76 0 -138 18t-110.5 55.5t-75.5 103.5t-27 156v311h-12q-57 -114 -168 -180.5t-258 -66.5q-180 0 -323.5 99.5t-223.5 275.5t-80 395q0 215 80 389t224 273.5t323 99.5q148 0 258.5 -65.5
t167.5 -176.5h15v221h260zM778 222q200 0 298.5 141t98.5 383q0 237 -101 381t-294 144q-183 0 -290 -143.5t-107 -381.5q0 -245 107 -384.5t288 -139.5z" />
    <glyph glyph-name="uni024B" unicode="&#x24b;" horiz-adv-x="1371" 
d="M1232 -419q-76 0 -137.5 18t-110.5 55.5t-76 103.5t-27 156v262h-11q-99 -196 -320 -196q-203 0 -332 154t-129 423q0 270 130.5 422.5t331.5 152.5q220 0 319 -200h16v185h259v-1203q0 -123 158 -123q27 0 69 6v-206q-46 -10 -140 -10zM623 196q124 0 193.5 99t69.5 264
t-69 261t-194 96q-128 0 -196.5 -98t-68.5 -259q0 -162 69 -262.5t196 -100.5z" />
    <glyph glyph-name="uni024C" unicode="&#x24c;" horiz-adv-x="1365" 
d="M175 0v560h-156v212h156v717h558q251 0 388 -129t137 -347q0 -152 -68 -260.5t-199 -161.5l322 -591h-301l-293 545h-275v-545h-269zM444 769h249q290 0 290 244q0 251 -291 251h-248v-495z" />
    <glyph glyph-name="uni024D" unicode="&#x24d;" horiz-adv-x="847" 
d="M135 0v456h-216v167h216v494h256v-186h11q30 96 104 149t172 53q86 0 150 -41l-82 -218q-50 23 -104 23q-104 0 -173.5 -67.5t-69.5 -172.5v-34h216v-167h-216v-456h-264z" />
    <glyph glyph-name="uni024E" unicode="&#x24e;" horiz-adv-x="1446" 
d="M1433 1180v-147h-300l-277 -477v-556h-269v556l-277 477h-296v147h211l-180 309h305l171 -309h401l171 309h305l-180 -309h215zM602 1033l112 -202h15l112 202h-239z" />
    <glyph glyph-name="uni024F" unicode="&#x24f;" horiz-adv-x="1188" 
d="M1133 768v-149h-171l-273 -764q-104 -290 -392 -290q-91 0 -166 30l61 211q58 -16 102.5 -16.5t79.5 27.5t59 88l26 72l-228 642h-179v149h126l-124 349h279l106 -349h314l107 349h280l-124 -349h117zM708 619h-223l106 -346h11z" />
    <glyph glyph-name="uni0250" unicode="&#x250;" horiz-adv-x="1176" 
d="M720 1140q166 0 270 -88t104 -248q0 -73 -24 -129.5t-62 -92.5t-95.5 -61t-114 -37t-128.5 -20q-13 -1 -38 -4q-78 -8 -111 -12.5t-69.5 -15t-47.5 -26.5t-11 -42v-5q0 -83 49.5 -127.5t140.5 -44.5t149.5 40t79.5 102l245 -35q-43 -150 -168 -229.5t-305 -79.5
q-67 0 -129 11.5t-122.5 39.5t-104.5 70.5t-71 110t-27 152.5v748h253v-153h9q40 77 122.5 126.5t205.5 49.5zM652 946q-116 0 -187.5 -67t-71.5 -163v-131q33 27 241 54q206 30 206 160q0 71 -51.5 109t-136.5 38z" />
    <glyph glyph-name="uni0251" unicode="&#x251;" horiz-adv-x="1327" 
d="M565 -23q-139 1 -247.5 75t-168.5 206.5t-60 300.5q0 252 137.5 412.5t345.5 160.5q137 0 233.5 -74t147.5 -203h5l55 262h210l-124 -558l139 -559h-213l-61 263h-5q-52 -132 -150.5 -209.5t-243.5 -76.5zM895 559v2q-10 49 -23.5 93t-38 94t-54.5 85.5t-75 59t-98 23.5
q-117 0 -187.5 -99.5t-70.5 -257.5t68.5 -260.5t178.5 -102.5q62 0 115.5 35.5t89.5 92.5t59 115t36 117v3z" />
    <glyph glyph-name="uni0252" unicode="&#x252;" horiz-adv-x="1346" 
d="M1218 570v-20q1 -167 -48 -295.5t-148.5 -202.5t-236.5 -74q-176 0 -278 151l-21 -130h-234v743q1 74 -18 104.5t-57 30.5q-5 0 -12.5 -1.5t-10.5 -1.5l-23 201q51 28 129 28q174 0 235 -166q103 164 293 164q203 0 317 -146.5t113 -384.5zM947 550v20q0 66 -11.5 120.5
t-36.5 99.5t-71 70.5t-109 25.5q-131 0 -196 -116q1 -9 1 -28v-425q65 -121 194 -121q61 0 106 27.5t71.5 77t39 112t12.5 137.5z" />
    <glyph glyph-name="uni0253" unicode="&#x253;" horiz-adv-x="1279" 
d="M135 0v1177q0 75 20 133.5t53.5 95.5t80.5 61t97 33.5t107 9.5q90 0 139 -10v-206q-44 6 -68 6q-165 0 -165 -123v-245h10q99 200 320 200q201 0 331 -152.5t130 -422.5q0 -269 -129 -423t-332 -154q-221 0 -320 196h-15v-176h-259zM585 302q64 -33 116.5 -22t90.5 55
t60 117q36 105 2.5 207t-128.5 151q-94 47 -161 8.5t-101 -153.5q-35 -113 -2.5 -213.5t123.5 -149.5z" />
    <glyph glyph-name="uni0254" unicode="&#x254;" horiz-adv-x="1153" 
d="M97 368h254q5 -76 61.5 -124t141.5 -48q233 0 233 329v32q0 50 -5.5 93t-21 88t-40.5 76.5t-67.5 52t-98.5 20.5q-91 0 -144 -57t-59 -143h-254q5 187 130 301.5t324 114.5q124 0 222 -43t159 -118t93 -173t32 -212v-32q0 -115 -32 -213t-93 -172.5t-159.5 -117
t-222.5 -42.5q-122 0 -225 50.5t-164 139.5t-64 198z" />
    <glyph glyph-name="uni0255" unicode="&#x255;" horiz-adv-x="1187" 
d="M627 -22q-166 0 -292 76q-54 -68 -100 -133l-172 125q73 98 121 156q-95 148 -95 355q0 256 145.5 415.5t388.5 159.5q204 0 335.5 -110t145.5 -292h-252q-16 84 -74.5 136.5t-150.5 52.5q-123 0 -197 -96.5t-74 -263.5q0 -83 19 -154q198 169 408 169q144 0 225 -68.5
t82 -187.5q1 -149 -124.5 -244.5t-338.5 -95.5zM491 228q58 -40 136 -40q100 0 160.5 34t61.5 88q1 36 -24 56t-58 20q-115 0 -276 -158z" />
    <glyph glyph-name="uni0256" unicode="&#x256;" horiz-adv-x="1279" 
d="M1232 -419q-76 0 -137.5 18t-110 55.5t-75.5 103.5t-27 156v262h-12q-99 -196 -320 -196q-203 0 -332 154t-129 423q0 270 130.5 422.5t331.5 152.5q220 0 319 -200h11v557h264v-1575q0 -123 158 -123q27 0 69 6v-206q-44 -10 -140 -10zM623 196q124 0 193.5 99t69.5 264
t-69 261t-194 96q-128 0 -196.5 -98t-68.5 -259q0 -162 69 -262.5t196 -100.5z" />
    <glyph glyph-name="uni0257" unicode="&#x257;" horiz-adv-x="1315" 
d="M550 -20q-203 0 -332 154t-129 423q0 270 130.5 422.5t331.5 152.5q220 0 319 -200h11v242q0 76 21.5 135.5t57 96.5t84 61.5t98.5 34t105 9.5q84 0 138 -14v-206q-28 7 -68 7q-27 0 -47.5 -2t-45.5 -9t-41 -20t-27 -36.5t-11 -56.5v-1174h-259v176h-16
q-99 -196 -320 -196zM623 196q124 0 193.5 99t69.5 264t-69 261t-194 96q-128 0 -196.5 -98t-68.5 -259q0 -162 69 -262.5t196 -100.5z" />
    <glyph glyph-name="uni0258" unicode="&#x258;" horiz-adv-x="1152" 
d="M531 -20q-150 0 -257.5 57t-170.5 143l141 142q101 -126 272 -126q119 0 193 71t87 188h-713v116q1 244 123.5 388t355.5 144q223 0 366 -155.5t142 -403.5v-39q1 -147 -63 -265.5t-188 -189t-288 -70.5zM791 644q-18 111 -74.5 177t-153.5 66q-108 0 -158 -62t-56 -161
v-20h442z" />
    <glyph glyph-name="uni0259" unicode="&#x259;" horiz-adv-x="1213" 
d="M584 1139q252 0 397.5 -155t145.5 -419q0 -260 -145 -420t-384 -160q-106 0 -196.5 34t-161.5 101t-112 177.5t-41 252.5v81h778q-1 142 -78.5 222.5t-206.5 80.5q-86 0 -147.5 -37t-88.5 -107l-246 27q36 148 165 235t321 87zM865 453h-525q1 -115 71.5 -188.5
t182.5 -73.5q115 0 190 76t81 186z" />
    <glyph glyph-name="uni025A" unicode="&#x25a;" horiz-adv-x="1639" 
d="M548 1103q186 0 316 -88.5t185 -237.5l240 51q27 -171 43 -218q28 -81 89 -93q11 -2 25 -2q10 0 61 3l34 -167q-74 -38 -151 -38q-54 0 -95.5 15.5t-68.5 39.5t-48 63.5t-32.5 77.5t-22.5 92l-39 -8v-15v-40q0 -248 -141.5 -403t-364.5 -155q-234 0 -356.5 144.5
t-121.5 388.5v61l686 149q-32 76 -97.5 120t-156.5 44q-175 0 -275 -127l-138 143q58 84 167.5 142t261.5 58zM815 535l-450 -94v-23q0 -96 52.5 -159t162.5 -63q116 0 175 95t60 244z" />
    <glyph glyph-name="uni025B" unicode="&#x25b;" horiz-adv-x="1262" 
d="M723 584v-105h-150q-97 0 -161 -41t-64 -111q0 -63 62.5 -103.5t169.5 -40.5q209 0 235 141h257q-7 -107 -74 -186t-173 -118.5t-237 -39.5q-215 0 -356 89t-142 235q1 90 58.5 159t181.5 100q-112 31 -166 97.5t-55 146.5q1 152 132 238.5t345 86.5q198 0 326.5 -88.5
t141.5 -242.5h-260q-10 62 -68 95t-151 33q-97 0 -153 -39t-57 -99q1 -58 55 -91.5t153 -33.5h150v-82z" />
    <glyph glyph-name="uni025C" unicode="&#x25c;" horiz-adv-x="1150" 
d="M431 540v126h149q99 0 153 33.5t55 91.5q-1 60 -57 99t-153 39q-93 0 -151 -33t-68 -95h-259q13 154 141 242.5t326 88.5q214 0 345 -86.5t132 -238.5q-1 -80 -55 -146.5t-166 -97.5q124 -31 181.5 -100t58.5 -159q-1 -146 -141.5 -235t-355.5 -89q-201 0 -337.5 92
t-147.5 252h258q26 -141 234 -141q107 0 170 41t63 103q0 70 -64.5 111t-161.5 41h-149v61z" />
    <glyph glyph-name="uni025D" unicode="&#x25d;" horiz-adv-x="1602" 
d="M433 540v126h150q99 0 153 33.5t55 91.5q-1 60 -57.5 99t-153.5 39q-93 0 -151 -33t-68 -95h-259q13 154 141 242.5t326 88.5q174 0 296 -58.5t163 -165.5l224 46l3 -21q25 -163 46 -213q33 -78 106 -78q40 0 60 4l36 -167q-70 -38 -151 -38q-54 0 -95.5 15.5t-68.5 39.5
t-48 64t-33 77t-24 91l-56 -13q-49 -109 -202 -152q124 -31 181.5 -100t58.5 -159q-1 -146 -141.5 -235t-355.5 -89q-131 0 -237 39.5t-173 118.5t-74 186h257q26 -141 234 -141q107 0 170 41t63 103q0 70 -64 111t-161 41h-150v61z" />
    <glyph glyph-name="uni025E" unicode="&#x25e;" horiz-adv-x="1182" 
d="M598 -20q-111 0 -204.5 38.5t-162 111.5t-106.5 186.5t-38 257.5q0 136 37 242.5t105 175.5t162 104.5t208 35.5q208 0 333.5 -86t126.5 -239q-1 -81 -51 -146.5t-158 -97.5q119 -30 173.5 -99.5t55.5 -159.5q-1 -146 -136 -235t-345 -89zM527 584v80h84q95 0 143 34
t49 93q-1 60 -50 99t-138 39q-130 0 -203 -87t-72 -268q-1 -192 68 -290.5t201 -98.5q99 0 154.5 39.5t56.5 102.5q-1 71 -57.5 112.5t-151.5 41.5h-84v103z" />
    <glyph glyph-name="uni025F" unicode="&#x25f;" horiz-adv-x="533" 
d="M135 1117h264v-366h215v-167h-215v-646q0 -179 -101 -268.5t-291 -86.5q-8 1 -25 1.5t-26 0.5v214q15 -1 38 -1q74 0 107.5 36t33.5 108v642h-218v167h218v366z" />
    <glyph glyph-name="uni0260" unicode="&#x260;" horiz-adv-x="1305" 
d="M623 -438q-202 0 -328 78t-165 200l237 57q71 -136 261 -136q119 0 189 56.5t70 171.5v212h-14q-93 -185 -321 -185q-98 0 -180.5 34.5t-145.5 101t-98.5 172t-35.5 238.5q0 134 35.5 243t98 180t146.5 109t181 38q221 0 320 -200h15v125h-2v120q0 74 19.5 132.5
t52.5 95.5t79 61t95.5 34t106.5 10q90 0 140 -10v-206q-53 6 -69 6q-165 0 -165 -123v-60h3v-1135q0 -137 -69 -233t-185.5 -141.5t-270.5 -45.5zM625 223q125 0 194 90t69 251q0 162 -69 257t-194 95q-127 0 -196 -97t-69 -255t68.5 -249.5t196.5 -91.5z" />
    <glyph glyph-name="uni0261" unicode="&#x261;" horiz-adv-x="1280" 
d="M621 -438q-202 0 -328 78t-165 200l237 57q71 -136 260 -136q119 0 189 56.5t70 171.5v212h-13q-93 -185 -321 -185q-98 0 -181 34.5t-146 101t-98.5 172t-35.5 238.5q0 134 36 243t98.5 180t146.5 109t181 38q221 0 320 -200h15v185h259v-1135q0 -137 -69 -233
t-185 -141.5t-270 -45.5zM623 223q125 0 194 90t69 251q0 162 -69 257t-194 95q-127 0 -196 -97t-69 -255t68.5 -249.5t196.5 -91.5z" />
    <glyph glyph-name="uni0262" unicode="&#x262;" horiz-adv-x="1347" 
d="M1188 576v-415q-156 -180 -493 -180q-240 0 -392 134.5t-152 347.5v162q0 212 148.5 345t382.5 133q228 0 354.5 -97.5t145.5 -281.5h-260q-14 84 -73 124.5t-167 40.5q-119 0 -195 -74t-76 -188v-164q0 -116 78 -191.5t206 -75.5q164 0 247 56v133h-246v191h492z" />
    <glyph glyph-name="uni0263" unicode="&#x263;" horiz-adv-x="1309" 
d="M656 -436q-149 0 -243.5 66t-93.5 190q-2 83 66 203l135 256l-433 818h274l294 -562l298 562h273l-432 -826l127 -243q64 -121 64 -208q0 -124 -91 -190t-238 -66zM659 14q-1 -1 -1 -2t-0.5 -1.5t-0.5 -1.5q-27 -49 -39 -72.5t-21.5 -51.5t-9.5 -49q-1 -32 16.5 -53
t52.5 -21q33 0 50 21t17 53q0 52 -64 178z" />
    <glyph glyph-name="uni0264" unicode="&#x264;" horiz-adv-x="1429" 
d="M217 789l-141 161q61 72 128 112.5t164 40.5t178.5 -65.5t167.5 -193.5q84 127 167 193t183 66q95 0 162 -40.5t130 -112.5l-143 -161q-61 70 -113 70q-54 0 -102 -51.5t-140 -204.5q103 -178 129 -238q31 -77 32 -140q-1 -117 -83 -181t-222 -64q-141 0 -223 64t-81 181
q0 50 22.5 113t47.5 109t88 154v1l1 1q-93 154 -140.5 205t-98.5 51q-54 0 -113 -70zM714 367q-56 -93 -55 -130q-2 -58 55 -58q53 0 55 58q-1 42 -55 130z" />
    <glyph glyph-name="uni0265" unicode="&#x265;" horiz-adv-x="1258" 
d="M860 463v654h263v-1536h-258v609h-13q-39 -98 -123 -151.5t-210 -53.5q-177 0 -280.5 110.5t-103.5 310.5v711h264v-670q0 -113 57.5 -176t161.5 -63q107 0 174.5 68.5t67.5 186.5z" />
    <glyph glyph-name="uni0266" unicode="&#x266;" horiz-adv-x="1248" 
d="M399 655v-655h-264v1177q0 92 28.5 159t78.5 104t110 53.5t132 16.5q90 0 139 -10v-206q-42 6 -70 6q-166 0 -166 -123v-250h13q39 96 125 150.5t208 54.5q176 0 280 -111.5t103 -309.5v-711h-264v671q0 112 -57.5 175t-159.5 63q-106 0 -171 -67.5t-65 -186.5z" />
    <glyph glyph-name="uni0267" unicode="&#x267;" horiz-adv-x="1248" 
d="M399 655v-655h-264v1177q0 92 28.5 159t78.5 104t110 53.5t132 16.5q90 0 139 -10v-206q-42 6 -70 6q-166 0 -166 -123v-250h13q39 96 125 150.5t208 54.5q176 0 280 -111.5t103 -309.5v-797q0 -174 -96.5 -253.5t-255.5 -79.5q-90 0 -139 10v206q42 -6 69 -6
q158 0 158 123v757q0 112 -57.5 175t-159.5 63q-106 0 -171 -67.5t-65 -186.5z" />
    <glyph glyph-name="uni0268" unicode="&#x268;" horiz-adv-x="533" 
d="M135 0v521h-217v166h217v430h264v-430h216v-166h-216v-521h-264zM268 1276q-63 0 -108 41.5t-45 100.5t45 101t108 42t107.5 -42t44.5 -101t-44.5 -100.5t-107.5 -41.5z" />
    <glyph glyph-name="uni0269" unicode="&#x269;" horiz-adv-x="775" 
d="M137 1082h270v-769q0 -78 46 -112t118 -34q31 0 70 7v-181q-71 -13 -141 -13q-77 0 -140 17.5t-114.5 55t-80 103.5t-28.5 157v769z" />
    <glyph glyph-name="uni026A" unicode="&#x26a;" horiz-adv-x="884" 
d="M731 1082v-216h-155v-649h155v-217h-575v217h149v649h-149v216h575z" />
    <glyph glyph-name="uni026B" unicode="&#x26b;" horiz-adv-x="661" 
d="M466 1489v-637q14 -2 23 -2q41 0 65.5 31t25.5 80l157 -6q-1 -126 -66.5 -199.5t-165.5 -74.5q-21 0 -39 3v-684h-263v776q-53 -24 -53 -103l-159 4q0 120 59.5 194t152.5 82v536h263z" />
    <glyph glyph-name="uni026C" unicode="&#x26c;" horiz-adv-x="973" 
d="M953 567h-217v-567h-263v567h-114q-147 0 -234 75t-86 199q-1 125 89 208t252 83q48 0 93 -8v365h263v-730h217v-192zM473 820q-1 53 -25.5 84t-72.5 31q-42 0 -70.5 -26.5t-28.5 -62.5q0 -35 28.5 -61t75.5 -26h93v61z" />
    <glyph glyph-name="uni026D" unicode="&#x26d;" horiz-adv-x="626" 
d="M399 1489v-1575q0 -123 158 -123q27 0 69 6v-206q-49 -10 -139 -10q-76 0 -138 18t-111 55.5t-76 103.5t-27 156v1575h264z" />
    <glyph glyph-name="uni026E" unicode="&#x26e;" horiz-adv-x="1401" 
d="M147 1489h252v-372h876l1 -185l-408 -440v-12q215 -24 330.5 -141.5t114.5 -288.5q0 -127 -69.5 -228.5t-195.5 -158t-284 -56.5q-125 0 -231 37t-180 104l192 170q82 -85 222 -85q119 0 194 64.5t75 166.5q0 108 -77 176.5t-202 68.5h-166v194l349 381v11h-541v-862
h-252v1456z" />
    <glyph glyph-name="uni026F" unicode="&#x26f;" horiz-adv-x="1838" 
d="M1703 1117v-1117h-251v190h-13q-36 -96 -117 -150.5t-192 -54.5q-112 0 -190.5 54.5t-111.5 150.5h-11q-37 -94 -126.5 -149.5t-209.5 -55.5q-158 0 -253.5 100t-95.5 282v750h264v-709q0 -99 53.5 -150t137.5 -51q94 0 148 58.5t54 154.5v697h258v-720q0 -86 52 -138
t136 -52q86 0 145.5 65t59.5 166v679h263z" />
    <glyph glyph-name="uni0270" unicode="&#x270;" horiz-adv-x="1838" 
d="M1452 -419v609h-13q-36 -96 -117 -150.5t-192 -54.5q-112 0 -190.5 54.5t-111.5 150.5h-11q-37 -94 -126.5 -149.5t-209.5 -55.5q-158 0 -253.5 100t-95.5 282v750h264v-709q0 -99 53.5 -150t137.5 -51q94 0 148 58.5t54 154.5v697h258v-720q0 -86 52 -138t136 -52
q86 0 145.5 65t59.5 166v679h263v-1536h-251z" />
    <glyph glyph-name="uni0271" unicode="&#x271;" horiz-adv-x="1838" 
d="M135 0v1117h252v-190h13q36 96 116.5 150.5t191.5 54.5q112 0 190.5 -54.5t111.5 -150.5h12q37 94 126 149.5t209 55.5q158 0 253.5 -100t95.5 -282v-836q0 -90 -27 -156t-76.5 -103.5t-111.5 -55.5t-138 -18q-88 0 -138 10v206q44 -6 69 -6q158 0 158 123v795
q0 99 -53 150t-137 51q-94 0 -148.5 -58.5t-54.5 -154.5v-697h-258v720q0 86 -51.5 138t-135.5 52q-86 0 -145.5 -65t-59.5 -166v-679h-264z" />
    <glyph glyph-name="uni0272" unicode="&#x272;" horiz-adv-x="1284" 
d="M171 0h1v1117h251v-190h13q39 96 125 150.5t208 54.5q176 0 280 -111.5t103 -309.5v-711h-263v671q0 112 -58 175t-160 63q-106 0 -171 -67.5t-65 -186.5v-736q0 -167 -99.5 -257t-264.5 -90q-85 0 -136 11l13 216q41 -9 80 -9q143 0 143 129v81z" />
    <glyph glyph-name="uni0273" unicode="&#x273;" horiz-adv-x="1278" 
d="M399 655v-655h-264v1117h252v-190h13q39 96 125 150.5t208 54.5q176 0 280 -111.5t103 -309.5v-797q0 -123 158 -123q17 0 69 6v-206q-50 -10 -139 -10q-159 0 -255.5 79.5t-96.5 253.5v757q0 112 -57.5 175t-159.5 63q-106 0 -171 -67.5t-65 -186.5z" />
    <glyph glyph-name="uni0274" unicode="&#x274;" horiz-adv-x="1154" 
d="M376 1082l403 -703v703h270v-1082h-270l-403 707v-707h-270v1082h270z" />
    <glyph glyph-name="uni0275" unicode="&#x275;" horiz-adv-x="1247" 
d="M623 -22q-244 0 -390 158t-146 418q0 261 146 419.5t390 158.5t389.5 -158.5t145.5 -419.5q0 -260 -145.5 -418t-389.5 -158zM624 189q110 0 176.5 76t84.5 203h-525q18 -127 85.5 -203t178.5 -76zM361 645h523q-18 126 -84.5 202t-175.5 76q-110 0 -177.5 -76
t-85.5 -202z" />
    <glyph glyph-name="uni0276" unicode="&#x276;" horiz-adv-x="1811" 
d="M1675 214v-214h-635q-100 0 -215.5 -10t-168.5 -10q-160 0 -279 72t-180 196t-60 281v24q-1 157 60 281t179.5 196.5t276.5 72.5q55 0 172 -10.5t215 -10.5h635v-214h-547v-215h459v-216h-459v-223h547zM857 207v668q-180 12 -204 12q-122 0 -183 -95t-61 -239v-24
q0 -96 24 -168.5t81 -118.5t142 -46q30 0 62 2t72.5 5t66.5 4z" />
    <glyph glyph-name="uni0277" unicode="&#x277;" horiz-adv-x="1832" 
d="M917 1103q184 0 331 -47.5t240.5 -131.5t142.5 -194.5t49 -240.5q0 -77 -13.5 -147.5t-46 -137.5t-81 -116t-124 -78.5t-169.5 -29.5q-114 0 -198.5 56t-131.5 163q-47 -107 -131.5 -163t-197.5 -56q-117 0 -204 44.5t-135.5 119.5t-71.5 161t-23 183q0 130 49 241
t142.5 195t240.5 131.5t332 47.5zM917 887q-107 0 -192.5 -21.5t-141 -58.5t-92.5 -88.5t-52.5 -108t-15.5 -121.5q-1 -132 40.5 -212.5t133.5 -80.5q81 0 130 70.5t49 220.5v191h281v-191q-1 -150 48.5 -220.5t130.5 -70.5q62 0 102.5 41t56.5 104t17 148q0 65 -16 121.5
t-53.5 108t-93 88.5t-140.5 58.5t-192 21.5z" />
    <glyph glyph-name="uni0278" unicode="&#x278;" horiz-adv-x="1450" 
d="M153 529v24q-1 227 115.5 366t322.5 173v444h268v-444q207 -34 322.5 -172t115.5 -367v-24q0 -229 -115.5 -367t-322.5 -172v-406h-268v407q-202 34 -320.5 171t-117.5 367zM424 553v-24q0 -237 167 -307v638q-79 -35 -123 -112.5t-44 -194.5zM859 861v-639
q166 72 166 307v24q0 118 -43 196t-123 112z" />
    <glyph glyph-name="uni0279" unicode="&#x279;" horiz-adv-x="847" 
d="M712 1117v-1117h-255v186h-12q-30 -96 -104 -149t-172 -53q-85 0 -149 41l81 218q50 -23 104 -23q104 0 174 67.5t70 172.5v657h263z" />
    <glyph glyph-name="uni027A" unicode="&#x27a;" horiz-adv-x="771" 
d="M86 -7l1 256q66 -8 104 -8q169 0 226 120v1175h270v-1536h-258l-6 124q-89 -144 -248 -144q-58 0 -89 13z" />
    <glyph glyph-name="uni027B" unicode="&#x27b;" horiz-adv-x="951" 
d="M712 1117v-1214q0 -152 169 -152q42 0 70 6v-180q-58 -13 -139 -13q-77 0 -139 17.5t-111.5 54.5t-77 102.5t-27.5 155.5v292h-12q-30 -96 -104 -149t-172 -53q-85 0 -149 41l81 218q50 -23 104 -23q104 0 174 67.5t70 172.5v657h263z" />
    <glyph glyph-name="uni027C" unicode="&#x27c;" horiz-adv-x="847" 
d="M135 -419v1536h256v-186h11q30 96 104 149t172 53q86 0 150 -41l-82 -218q-50 23 -104 23q-104 0 -173.5 -67.5t-69.5 -172.5v-1076h-264z" />
    <glyph glyph-name="uni027D" unicode="&#x27d;" horiz-adv-x="847" 
d="M487 -419q-76 0 -138 18t-111 55.5t-76 103.5t-27 156v1203h256v-186h11q30 96 104 149t172 53q86 0 150 -41l-82 -218q-50 23 -104 23q-104 0 -173.5 -67.5t-69.5 -172.5v-743q0 -123 158 -123q27 0 69 6v-206q-49 -10 -139 -10z" />
    <glyph glyph-name="uni027E" unicode="&#x27e;" horiz-adv-x="722" 
d="M388 0h-258v785q0 75 21 133t55 94.5t82 60.5t98.5 33.5t108.5 9.5q78 0 141 -15v-188q-44 6 -69 6q-35 0 -65 -6.5t-57 -21.5t-42 -44t-15 -68v-779z" />
    <glyph glyph-name="uni027F" unicode="&#x27f;" horiz-adv-x="718" 
d="M588 -417h-258v1196q0 40 -15 68t-41.5 43.5t-56 22t-64.5 6.5q-29 0 -69 -6v188q63 15 139 15q58 0 108.5 -9.5t98.5 -33.5t82.5 -60.5t55 -94.5t20.5 -133v-1202z" />
    <glyph glyph-name="uni0280" unicode="&#x280;" horiz-adv-x="1349" 
d="M185 1082h481q211 0 334 -99t123 -256q0 -98 -54 -175t-153 -121l251 -431h-278l-224 385h-211v-385h-269v1082zM454 577h222q86 0 132 42.5t46 101.5q0 61 -48.5 104t-139.5 43h-212v-291z" />
    <glyph glyph-name="uni0281" unicode="&#x281;" horiz-adv-x="1349" 
d="M666 0h-481v1082h269v-385h210l225 385h278l-251 -430q99 -43 153 -120.5t54 -176.5q0 -156 -124 -255.5t-333 -99.5zM454 505v-291h212q90 0 139 44.5t49 103.5q0 57 -46.5 100t-131.5 43h-222z" />
    <glyph glyph-name="uni0282" unicode="&#x282;" horiz-adv-x="1124" 
d="M86 305l257 24q35 -152 221 -152q93 0 150.5 38t57.5 96q0 94 -150 127l-191 40q-316 65 -314 315q-1 154 124 246.5t328 92.5q192 0 306.5 -82.5t142.5 -227.5l-240 -26q-16 60 -68.5 99.5t-137.5 39.5q-83 0 -138 -36t-54 -92q-1 -49 36 -79.5t121 -49.5l191 -41
q159 -35 236 -109t78 -193q-1 -159 -134 -258t-343 -99q-160 0 -274 54v-72q0 -77 47 -111.5t125 -34.5q43 0 71 6v-186q-49 -13 -119 -13q-149 0 -239 87t-90 241v356z" />
    <glyph glyph-name="uni0283" unicode="&#x283;" horiz-adv-x="963" 
d="M222 -436q-70 0 -144 18l4 209q35 -9 93 -9q82 0 126 41t44 117v1240q0 181 105.5 278.5t291.5 97.5q66 0 145 -18l-6 -209q-37 9 -93 9q-81 0 -126 -40.5t-44 -117.5v-1240q-1 -181 -106 -278.5t-290 -97.5z" />
    <glyph glyph-name="uni0284" unicode="&#x284;" horiz-adv-x="963" 
d="M222 -436q-70 0 -144 18l4 209q35 -9 93 -9q82 0 126 41t44 117v83h-212v167h212v990q0 181 105.5 278.5t291.5 97.5q66 0 145 -18l-6 -209q-37 9 -93 9q-81 0 -126 -40.5t-44 -117.5v-990h212v-167h-212v-83q-1 -181 -106 -278.5t-290 -97.5z" />
    <glyph glyph-name="uni0285" unicode="&#x285;" horiz-adv-x="964" 
d="M348 0v726q0 75 -45.5 116.5t-127.5 41.5q-57 0 -93 -10l-4 210q74 19 144 19q185 0 290 -98t106 -279v-786q-1 -77 44 -117.5t126 -40.5q57 0 96 9l5 -209q-81 -18 -147 -18q-185 0 -289.5 97t-104.5 279v60z" />
    <glyph glyph-name="uni0286" unicode="&#x286;" horiz-adv-x="1147" 
d="M784 240v-258l264 -226l-132 -163l-165 148q-78 -177 -331 -177q-164 0 -255.5 76t-91.5 200q0 126 86.5 199t236.5 73q70 0 131 -12v1080q0 182 102 279t287 97q65 0 144 -18l-5 -209q-35 9 -94 9q-81 0 -129 -41t-48 -117v-940zM527 -100q-49 21 -99 21
q-49 0 -79.5 -23.5t-30.5 -61.5q0 -42 27.5 -65.5t69.5 -23.5q55 0 83.5 30t28.5 82v41z" />
    <glyph glyph-name="uni0287" unicode="&#x287;" horiz-adv-x="778" 
d="M85 0v204h220v577q0 74 -31.5 102t-87.5 28q-36 0 -77 -11l-44 206q74 24 155 26q155 5 252.5 -75t96.5 -232v-621h158v-204h-158v-268h-264v268h-220z" />
    <glyph glyph-name="uni0288" unicode="&#x288;" horiz-adv-x="785" 
d="M693 1117v-204h-220v-994q0 -74 31.5 -101.5t87.5 -27.5q27 0 77 10l44 -206q-70 -23 -154 -26q-155 -5 -253 75t-97 233v1037h-158v204h158v268h264v-268h220z" />
    <glyph glyph-name="uni0289" unicode="&#x289;" horiz-adv-x="1336" 
d="M1337 726v-165h-181v-561h-256v199h-11q-40 -97 -127.5 -155.5t-208.5 -58.5q-168 0 -270.5 111.5t-102.5 309.5v155h-180v165h180v391h264v-391h448v391h264v-391h181zM892 470v91h-448v-114q0 -106 57.5 -169t153.5 -63q95 0 166 67.5t71 187.5z" />
    <glyph glyph-name="uni028A" unicode="&#x28a;" horiz-adv-x="1346" 
d="M673 196q66 0 117.5 15.5t81.5 40t49 58t25.5 64.5t6.5 66q0 56 -18 118t-39.5 107.5t-39.5 102t-18 101.5q0 234 374 234v-208q-40 0 -70 -18.5t-30 -61.5q0 -34 17.5 -81t39 -91t39 -117t17.5 -152q0 -56 -14.5 -107.5t-53 -105t-98.5 -92.5t-159.5 -64t-226.5 -25
t-226 25t-158.5 64t-98 92.5t-52.5 105t-14 107.5q0 79 17.5 152t38.5 117t38.5 91t17.5 81q0 43 -30.5 61.5t-70.5 18.5v208q376 0 376 -234q0 -56 -29.5 -129t-59 -151.5t-29.5 -148.5q0 -44 12 -83t41 -77.5t87 -61t140 -22.5z" />
    <glyph glyph-name="uni028B" unicode="&#x28b;" horiz-adv-x="1154" 
d="M576 199q94 0 143 53.5t50 178.5v309q-1 134 -106 134q-39 0 -86 -10l-29 195q141 44 236 44q59 0 104 -17t73 -45.5t46 -71t25 -89.5t7 -105v-344q-1 -231 -124 -341t-339 -110q-104 0 -187 26t-145 79t-95 140.5t-33 205.5v651h269v-651q0 -125 49 -178.5t142 -53.5z
" />
    <glyph glyph-name="uni028C" unicode="&#x28c;" horiz-adv-x="1179" 
d="M47 0l397 1117h291l398 -1117h-281l-256 830h-12l-257 -830h-280z" />
    <glyph glyph-name="uni028D" unicode="&#x28d;" horiz-adv-x="1669" 
d="M1281 1117l315 -1117h-268l-196 785h-11l-200 -785h-266l-200 781h-11l-194 -781h-269l316 1117h275l209 -755h15l210 755h275z" />
    <glyph glyph-name="uni028E" unicode="&#x28e;" horiz-adv-x="1179" 
d="M890 1552q91 0 166 -30l-61 -211q-58 16 -102.5 16.5t-79.5 -27.5t-59 -88l-26 -72l405 -1140h-279l-258 844h-11l-258 -844h-280l450 1263q49 137 147 213t246 76z" />
    <glyph glyph-name="uni028F" unicode="&#x28f;" horiz-adv-x="1147" 
d="M321 1082l254 -499l253 499h293l-416 -736v-346h-268v358l-412 724h296z" />
    <glyph glyph-name="uni0290" unicode="&#x290;" horiz-adv-x="1278" 
d="M836 0h-715v167l576 722v10h-557v218h879v-180l-548 -709v-10h567v-324q0 -137 171 -137q35 0 70 6v-186q-49 -13 -118 -13q-149 0 -237 87t-88 243v106z" />
    <glyph glyph-name="uni0291" unicode="&#x291;" horiz-adv-x="1389" 
d="M929 0h-229l-171 -234l-173 109l88 125h-317v170l566 730h-560v217h890v-166l-565 -734h140q152 209 256 299t221 90q113 0 193 -74t80 -187q0 -47 -14.5 -94t-47.5 -92.5t-80 -80.5t-119 -56.5t-158 -21.5zM854 217h87q91 0 138.5 32.5t47.5 81.5q0 28 -22 44t-53 16
q-45 0 -86.5 -38.5t-111.5 -135.5z" />
    <glyph glyph-name="uni0292" unicode="&#x292;" horiz-adv-x="1324" 
d="M109 33h273q8 -93 84.5 -146.5t189.5 -53.5q121 0 197 62t76 169t-80 176t-234 69h-147v194l344 378v11h-629v225h970v-195l-400 -430v-12q213 -18 333 -139.5t120 -290.5q0 -195 -156 -319t-396 -124q-232 0 -384 116.5t-161 309.5z" />
    <glyph glyph-name="uni0293" unicode="&#x293;" horiz-adv-x="1369" 
d="M191 1117h961l1 -185l-407 -440v-12q190 -21 300 -140.5t110 -303.5q0 -100 -47 -192l143 -109l-119 -145l-142 109q-162 -135 -416 -135q-85 0 -164.5 20t-145 58.5t-105 101.5t-39.5 141q0 127 96 202.5t259 75.5q222 0 428 -162h1q8 35 8 63q0 108 -77 176.5
t-202 68.5h-166v194l349 381v11h-626v222zM805 -156l-12 9q-157 122 -307 122q-63 0 -99 -23t-36 -61q0 -51 71 -81t176 -30q127 0 207 64z" />
    <glyph glyph-name="uni0294" unicode="&#x294;" horiz-adv-x="1153" 
d="M435 559h119q233 0 233 330v125q0 326 -233 326q-85 0 -141.5 -46.5t-61.5 -122.5h-254q3 109 64 197.5t163.5 138t225.5 49.5q100 0 183.5 -27.5t142.5 -77t100.5 -117.5t61 -148.5t19.5 -171.5v-125q0 -198 -91.5 -341t-265.5 -187v-361h-275v559h10z" />
    <glyph glyph-name="uni0295" unicode="&#x295;" horiz-adv-x="1153" 
d="M457 0v359q-176 44 -268 186t-92 341v125q0 115 32 213t93.5 172.5t159 117t220.5 42.5q203 0 327.5 -113.5t127.5 -302.5h-255q-4 87 -57 143.5t-146 56.5q-229 0 -231 -329v-125q2 -313 211 -327h148v-559h-270z" />
    <glyph glyph-name="uni0296" unicode="&#x296;" horiz-adv-x="1153" 
d="M697 1536v-357q175 -44 267.5 -187t92.5 -342v-125q0 -114 -32 -212t-93 -173t-159 -117.5t-222 -42.5q-199 0 -324 114.5t-130 301.5h254q6 -86 59 -143t144 -57q56 0 98.5 20.5t67.5 52t40.5 76.5t21 88t5.5 92v125q0 316 -211 330h-150v556h271z" />
    <glyph glyph-name="uni0297" unicode="&#x297;" horiz-adv-x="1153" 
d="M600 -220q85 0 141.5 47t60.5 123h255q-3 -163 -135 -274.5t-318 -111.5q-125 0 -223 42.5t-159 117t-93 172.5t-32 213v448q0 114 32 212t93.5 173t159 118t220.5 43q202 0 327 -114.5t128 -301.5h-255q-4 86 -57 143t-146 57q-229 0 -231 -330v-448q2 -329 232 -329z
" />
    <glyph glyph-name="uni0298" unicode="&#x298;" horiz-adv-x="1557" 
d="M1478 745q0 -177 -52 -322t-144 -241.5t-217 -149t-272 -52.5t-272 52.5t-216.5 149t-143.5 241.5t-52 322t52 322t143.5 241.5t216.5 149t272 52.5t272 -52.5t217 -149t144 -241.5t52 -322zM1207 745q0 249 -113.5 386t-300.5 137q-186 0 -299.5 -137.5t-113.5 -385.5
t113.5 -385.5t299.5 -137.5q187 0 300.5 137t113.5 386zM783 588q-67 0 -114 46.5t-46 113.5q-1 65 46 111.5t114 46.5q65 0 112 -46.5t48 -111.5q-1 -66 -48 -113t-112 -47z" />
    <glyph glyph-name="uni0299" unicode="&#x299;" horiz-adv-x="1170" 
d="M135 0v1117h469q199 0 314 -80t115 -220q0 -93 -64 -152.5t-178 -80.5q132 -11 214.5 -88t82.5 -193q0 -140 -108.5 -221.5t-303.5 -81.5h-541zM382 207h294q73 0 114.5 34.5t41.5 94.5q0 69 -41.5 108.5t-114.5 39.5h-294v-277zM382 655h227q80 0 126 34t46 94
q0 57 -47.5 90t-129.5 33h-222v-251z" />
    <glyph glyph-name="uni029A" unicode="&#x29a;" horiz-adv-x="1182" 
d="M585 -20q-210 0 -345.5 89t-136.5 235q1 90 55.5 159.5t173.5 99.5q-107 32 -157 97.5t-51 146.5q1 153 126 239t333 86q114 0 208 -35.5t162.5 -104.5t105.5 -175.5t37 -242.5q0 -144 -38 -257.5t-106.5 -186.5t-162 -111.5t-204.5 -38.5zM656 540v-59h-84
q-95 0 -151.5 -41.5t-57.5 -112.5q1 -63 56.5 -102.5t153.5 -39.5q132 0 201.5 98.5t68.5 290.5q1 181 -72.5 268t-203.5 87q-89 0 -137.5 -39t-49.5 -99q1 -59 49 -93t143 -34h84v-124z" />
    <glyph glyph-name="uni029B" unicode="&#x29b;" horiz-adv-x="1469" 
d="M1191 724h-261q-28 165 -240 165q-119 0 -195 -74t-76 -188v-164q0 -116 78 -191.5t206 -75.5q164 0 247 56v133h-246v191h492v-415q-156 -180 -493 -180q-240 0 -392 134.5t-152 347.5v162q0 212 148.5 345t382.5 133q197 0 323 -76q67 165 272 165q54 0 119 -15v-180
q-51 7 -69 7q-70 0 -107 -33.5t-37 -111.5v-135z" />
    <glyph glyph-name="uni029C" unicode="&#x29c;" horiz-adv-x="1205" 
d="M389 1117v-449h433v449h253v-1117h-253v452h-433v-452h-254v1117h254z" />
    <glyph glyph-name="uni029D" unicode="&#x29d;" horiz-adv-x="880" 
d="M354 -428q-163 0 -251.5 76t-89.5 199q0 126 90 201.5t240 75.5h106v124h1v869h263v-993h251v-196h-251q-1 -72 -20.5 -133.5t-60.5 -112.5t-112 -80.5t-166 -29.5zM583 1276q-63 0 -108 41.5t-45 100.5t45 101t108 42t107.5 -42t44.5 -101t-44.5 -100.5t-107.5 -41.5z
M449 -72h-87q-47 0 -78 -24t-32 -65q-1 -40 27.5 -62.5t71.5 -22.5q98 0 98 126v48z" />
    <glyph glyph-name="uni029E" unicode="&#x29e;" horiz-adv-x="1165" 
d="M1030 1117v-1489h-263v821h-19l-401 -449h-308l433 482l-458 635h315l342 -478l96 103v375h263z" />
    <glyph glyph-name="uni029F" unicode="&#x29f;" horiz-adv-x="964" 
d="M871 214v-214h-776v1082h272v-868h504z" />
    <glyph glyph-name="uni02A0" unicode="&#x2a0;" horiz-adv-x="1381" 
d="M1145 1117h-1v-1536h-263v595h-11q-99 -196 -320 -196q-203 0 -332 154t-129 423q0 270 130.5 422.5t331.5 152.5q220 0 319 -200h15v185h1q0 146 84 216t255 70q88 0 139 -15v-186q-46 11 -85 12q-134 2 -134 -97zM886 559q0 165 -69 261t-194 96q-128 0 -196.5 -98
t-68.5 -259q0 -162 69 -262.5t196 -100.5q124 0 193.5 99t69.5 264z" />
    <glyph glyph-name="uni02A1" unicode="&#x2a1;" horiz-adv-x="1153" 
d="M907 315v-178h-207v-137h-275v137h-213v178h213v244h129q233 0 233 330v125q0 326 -233 326q-85 0 -141.5 -46.5t-61.5 -122.5h-254q3 109 64 197.5t163.5 138t225.5 49.5q100 0 183.5 -27.5t142.5 -77t100.5 -117.5t61 -148.5t19.5 -171.5v-125q0 -198 -91.5 -341
t-265.5 -187v-46h207z" />
    <glyph glyph-name="uni02A2" unicode="&#x2a2;" horiz-adv-x="1153" 
d="M457 0v113h-213v166h213v80q-176 44 -268 186t-92 341v125q0 115 32 213t93.5 172.5t159 117t220.5 42.5q203 0 327.5 -113.5t127.5 -302.5h-255q-4 87 -57 143.5t-146 56.5q-229 0 -231 -329v-125q2 -313 211 -327h148v-280h213v-166h-213v-113h-270z" />
    <glyph glyph-name="uni02A3" unicode="&#x2a3;" horiz-adv-x="2247" 
d="M550 -20q-203 0 -332 154t-129 423q0 270 130.5 422.5t331.5 152.5q220 0 319 -200h11v557h264v-1489h-259v176h-16q-99 -196 -320 -196zM1218 0v167l576 722v10h-557v218h879v-180l-548 -709v-10h567v-218h-917zM623 196q124 0 193.5 99t69.5 264t-69 261t-194 96
q-128 0 -196.5 -98t-68.5 -259q0 -162 69 -262.5t196 -100.5z" />
    </font>
</defs>
</svg>
